  0
SECTION
  2
HEADER
  9
$ACADVER
  1
AC1014
  9
$ACADMAINTVER
 70
     8
  9
$DWGCODEPAGE
  3
ANSI_1252
  9
$INSBASE
 10
0.0
 20
0.0
 30
0.0
  9
$EXTMIN
 10
-3.414247
 20
-6.813897
 30
0.0
  9
$EXTMAX
 10
1.78
 20
1.194686
 30
4.47
  9
$LIMMIN
 10
0.0
 20
0.0
  9
$LIMMAX
 10
12.0
 20
9.0
  9
$ORTHOMODE
 70
     0
  9
$REGENMODE
 70
     1
  9
$FILLMODE
 70
     1
  9
$QTEXTMODE
 70
     0
  9
$MIRRTEXT
 70
     1
  9
$DRAGMODE
 70
     2
  9
$LTSCALE
 40
1.0
  9
$OSMODE
 70
    37
  9
$ATTMODE
 70
     1
  9
$TEXTSIZE
 40
0.12
  9
$TRACEWID
 40
0.05
  9
$TEXTSTYLE
  7
STANDARD
  9
$CLAYER
  8
0
  9
$CELTYPE
  6
BYLAYER
  9
$CECOLOR
 62
   256
  9
$CELTSCALE
 40
1.0
  9
$DELOBJ
 70
     1
  9
$DISPSILH
 70
     0
  9
$DIMSCALE
 40
1.0
  9
$DIMASZ
 40
0.18
  9
$DIMEXO
 40
0.0625
  9
$DIMDLI
 40
0.375
  9
$DIMRND
 40
0.0
  9
$DIMDLE
 40
0.0
  9
$DIMEXE
 40
0.18
  9
$DIMTP
 40
0.0
  9
$DIMTM
 40
0.0
  9
$DIMTXT
 40
0.18
  9
$DIMCEN
 40
0.09
  9
$DIMTSZ
 40
0.0
  9
$DIMTOL
 70
     0
  9
$DIMLIM
 70
     0
  9
$DIMTIH
 70
     0
  9
$DIMTOH
 70
     1
  9
$DIMSE1
 70
     0
  9
$DIMSE2
 70
     0
  9
$DIMTAD
 70
     0
  9
$DIMZIN
 70
     4
  9
$DIMBLK
  1

  9
$DIMASO
 70
     1
  9
$DIMSHO
 70
     1
  9
$DIMPOST
  1

  9
$DIMAPOST
  1

  9
$DIMALT
 70
     1
  9
$DIMALTD
 70
     2
  9
$DIMALTF
 40
25.4
  9
$DIMLFAC
 40
1.0
  9
$DIMTOFL
 70
     0
  9
$DIMTVP
 40
0.0
  9
$DIMTIX
 70
     0
  9
$DIMSOXD
 70
     0
  9
$DIMSAH
 70
     0
  9
$DIMBLK1
  1

  9
$DIMBLK2
  1

  9
$DIMSTYLE
  2
ABECAD_3D
  9
$DIMCLRD
 70
     0
  9
$DIMCLRE
 70
     0
  9
$DIMCLRT
 70
     0
  9
$DIMTFAC
 40
1.5
  9
$DIMGAP
 40
0.09
  9
$DIMJUST
 70
     0
  9
$DIMSD1
 70
     0
  9
$DIMSD2
 70
     0
  9
$DIMTOLJ
 70
     1
  9
$DIMTZIN
 70
     4
  9
$DIMALTZ
 70
     4
  9
$DIMALTTZ
 70
     4
  9
$DIMFIT
 70
     5
  9
$DIMUPT
 70
     1
  9
$DIMUNIT
 70
     7
  9
$DIMDEC
 70
     6
  9
$DIMTDEC
 70
     6
  9
$DIMALTU
 70
     2
  9
$DIMALTTD
 70
     2
  9
$DIMTXSTY
  7
STANDARD
  9
$DIMAUNIT
 70
     0
  9
$LUNITS
 70
     2
  9
$LUPREC
 70
     4
  9
$SKETCHINC
 40
0.1
  9
$FILLETRAD
 40
0.0
  9
$AUNITS
 70
     0
  9
$AUPREC
 70
     0
  9
$MENU
  1
ACAD
  9
$ELEVATION
 40
0.0
  9
$PELEVATION
 40
0.0
  9
$THICKNESS
 40
0.0
  9
$LIMCHECK
 70
     0
  9
$BLIPMODE
 70
     0
  9
$CHAMFERA
 40
0.0
  9
$CHAMFERB
 40
0.0
  9
$CHAMFERC
 40
0.0
  9
$CHAMFERD
 40
0.0
  9
$SKPOLY
 70
     0
  9
$TDCREATE
 40
2451726.438389120
  9
$TDUPDATE
 40
2452010.484402777
  9
$TDINDWG
 40
0.0973202546
  9
$TDUSRTIMER
 40
0.0973202546
  9
$USRTIMER
 70
     1
  9
$ANGBASE
 50
0.0
  9
$ANGDIR
 70
     0
  9
$PDMODE
 70
     3
  9
$PDSIZE
 40
0.09
  9
$PLINEWID
 40
0.0
  9
$COORDS
 70
     1
  9
$SPLFRAME
 70
     1
  9
$SPLINETYPE
 70
     6
  9
$SPLINESEGS
 70
     8
  9
$ATTDIA
 70
     0
  9
$ATTREQ
 70
     1
  9
$HANDLING
 70
     1
  9
$HANDSEED
  5
4C26E
  9
$SURFTAB1
 70
     6
  9
$SURFTAB2
 70
     6
  9
$SURFTYPE
 70
     6
  9
$SURFU
 70
     6
  9
$SURFV
 70
     6
  9
$UCSNAME
  2

  9
$UCSORG
 10
0.0
 20
0.0
 30
0.0
  9
$UCSXDIR
 10
1.0
 20
0.0
 30
0.0
  9
$UCSYDIR
 10
0.0
 20
1.0
 30
0.0
  9
$PUCSNAME
  2

  9
$PUCSORG
 10
0.0
 20
0.0
 30
0.0
  9
$PUCSXDIR
 10
1.0
 20
0.0
 30
0.0
  9
$PUCSYDIR
 10
0.0
 20
1.0
 30
0.0
  9
$USERI1
 70
     0
  9
$USERI2
 70
     0
  9
$USERI3
 70
     0
  9
$USERI4
 70
     0
  9
$USERI5
 70
     0
  9
$USERR1
 40
0.0
  9
$USERR2
 40
0.0
  9
$USERR3
 40
0.0
  9
$USERR4
 40
0.0
  9
$USERR5
 40
0.0
  9
$WORLDVIEW
 70
     1
  9
$SHADEDGE
 70
     3
  9
$SHADEDIF
 70
    70
  9
$TILEMODE
 70
     1
  9
$MAXACTVP
 70
    16
  9
$PINSBASE
 10
0.0
 20
0.0
 30
0.0
  9
$PLIMCHECK
 70
     0
  9
$PEXTMIN
 10
1.000000E+20
 20
1.000000E+20
 30
1.000000E+20
  9
$PEXTMAX
 10
-1.000000E+20
 20
-1.000000E+20
 30
-1.000000E+20
  9
$PLIMMIN
 10
0.0
 20
0.0
  9
$PLIMMAX
 10
12.0
 20
9.0
  9
$UNITMODE
 70
     0
  9
$VISRETAIN
 70
     0
  9
$PLINEGEN
 70
     0
  9
$PSLTSCALE
 70
     1
  9
$TREEDEPTH
 70
  3020
  9
$PICKSTYLE
 70
     1
  9
$CMLSTYLE
  2
STANDARD
  9
$CMLJUST
 70
     0
  9
$CMLSCALE
 40
1.0
  9
$PROXYGRAPHICS
 70
     1
  9
$MEASUREMENT
 70
     0
  0
ENDSEC
  0
SECTION
  2
CLASSES
  0
CLASS
  1
DICTIONARYVAR
  2
AcDbDictionaryVar
  3
"AutoCAD"
 90
        0
280
     0
281
     0
  0
CLASS
  1
ACDBDICTIONARYWDFLT
  2
AcDbDictionaryWithDefault
  3
AutoCAD 2000
 90
        0
280
     0
281
     0
  0
CLASS
  1
ACDBPLACEHOLDER
  2
AcDbPlaceHolder
  3
AutoCAD 2000
 90
        0
280
     0
281
     0
  0
CLASS
  1
LAYOUT
  2
AcDbLayout
  3
AutoCAD 2000
 90
        0
280
     0
281
     0
  0
CLASS
  1
LONG_TRANSACTION
  2
AcDbLongTransaction
  3
AutoCAD 2000
 90
        0
280
     0
281
     0
  0
CLASS
  1
LWPOLYLINE
  2
AcDbPolyline
  3
"AutoCAD"
 90
        0
280
     0
281
     1
  0
CLASS
  1
HATCH
  2
AcDbHatch
  3
"ACAD_SEDONA"
 90
        0
280
     0
281
     1
  0
CLASS
  1
XRECORD
  2
AcDbXrecord
  3
"<Built In>"
 90
        0
280
     0
281
     0
  0
CLASS
  1
LONG_TRANSACTION
  2
AcDbLongTransaction
  3
AutoCAD 2000
 90
        0
280
     0
281
     0
  0
CLASS
  1
LWPOLYLINE
  2
AcDbPolyline
  3
"AutoCAD"
 90
        0
280
     0
281
     1
  0
CLASS
  1
HATCH
  2
AcDbHatch
  3
"ACAD_SEDONA"
 90
        0
280
     0
281
     1
  0
CLASS
  1
XRECORD
  2
AcDbXrecord
  3
"<Built In>"
 90
        0
280
     0
281
     0
  0
CLASS
  1
LONG_TRANSACTION
  2
AcDbLongTransaction
  3
AutoCAD 2000
 90
        0
280
     0
281
     0
  0
CLASS
  1
LWPOLYLINE
  2
AcDbPolyline
  3
"AutoCAD"
 90
        0
280
     0
281
     1
  0
CLASS
  1
HATCH
  2
AcDbHatch
  3
"ACAD_SEDONA"
 90
        0
280
     0
281
     1
  0
CLASS
  1
XRECORD
  2
AcDbXrecord
  3
"<Built In>"
 90
        0
280
     0
281
     0
  0
CLASS
  1
LONG_TRANSACTION
  2
AcDbLongTransaction
  3
AutoCAD 2000
 90
        0
280
     0
281
     0
  0
CLASS
  1
LWPOLYLINE
  2
AcDbPolyline
  3
"AutoCAD"
 90
        0
280
     0
281
     1
  0
CLASS
  1
HATCH
  2
AcDbHatch
  3
"ACAD_SEDONA"
 90
        0
280
     0
281
     1
  0
CLASS
  1
XRECORD
  2
AcDbXrecord
  3
"<Built In>"
 90
        0
280
     0
281
     0
  0
CLASS
  1
LONG_TRANSACTION
  2
AcDbLongTransaction
  3
AutoCAD 2000
 90
        0
280
     0
281
     0
  0
CLASS
  1
LWPOLYLINE
  2
AcDbPolyline
  3
"AutoCAD"
 90
        0
280
     0
281
     1
  0
CLASS
  1
HATCH
  2
AcDbHatch
  3
"ACAD_SEDONA"
 90
        0
280
     0
281
     1
  0
CLASS
  1
XRECORD
  2
AcDbXrecord
  3
"<Built In>"
 90
        0
280
     0
281
     0
  0
CLASS
  1
LONG_TRANSACTION
  2
AcDbLongTransaction
  3
AutoCAD 2000
 90
        0
280
     0
281
     0
  0
CLASS
  1
LWPOLYLINE
  2
AcDbPolyline
  3
"AutoCAD"
 90
        0
280
     0
281
     1
  0
CLASS
  1
HATCH
  2
AcDbHatch
  3
"ACAD_SEDONA"
 90
        0
280
     0
281
     1
  0
CLASS
  1
XRECORD
  2
AcDbXrecord
  3
"<Built In>"
 90
        0
280
     0
281
     0
  0
CLASS
  1
LONG_TRANSACTION
  2
AcDbLongTransaction
  3
AutoCAD 2000
 90
        0
280
     0
281
     0
  0
CLASS
  1
LWPOLYLINE
  2
AcDbPolyline
  3
"AutoCAD"
 90
        0
280
     0
281
     1
  0
CLASS
  1
HATCH
  2
AcDbHatch
  3
"ACAD_SEDONA"
 90
        0
280
     0
281
     1
  0
CLASS
  1
XRECORD
  2
AcDbXrecord
  3
"<Built In>"
 90
        0
280
     0
281
     0
  0
ENDSEC
  0
SECTION
  2
TABLES
  0
TABLE
  2
VPORT
  5
458C7
100
AcDbSymbolTable
 70
     1
  0
VPORT
  5
4C23D
102
{ACAD_XDICTIONARY
360
4C240
102
}
100
AcDbSymbolTableRecord
100
AcDbViewportTableRecord
  2
*ACTIVE
 70
     0
 10
0.0
 20
0.0
 11
1.0
 21
1.0
 12
0.133299
 22
3.017828
 13
0.0
 23
0.0
 14
0.25
 24
0.25
 15
0.25
 25
0.25
 16
0.0
 26
0.0
 36
1.0
 17
-0.950202
 27
-5.827215
 37
0.845844
 40
8.144606
 41
1.960674
 42
50.0
 43
0.0
 44
0.0
 50
0.0
 51
0.0
 71
     0
 72
 20000
 73
     1
 74
     1
 75
     0
 76
     0
 77
     0
 78
     0
  0
ENDTAB
  0
TABLE
  2
LTYPE
  5
458C4
100
AcDbSymbolTable
 70
     1
  0
LTYPE
  5
458D0
100
AcDbSymbolTableRecord
100
AcDbLinetypeTableRecord
  2
BYBLOCK
 70
     0
  3

 72
    65
 73
     0
 40
0.0
  0
LTYPE
  5
458D1
100
AcDbSymbolTableRecord
100
AcDbLinetypeTableRecord
  2
BYLAYER
 70
     0
  3

 72
    65
 73
     0
 40
0.0
  0
LTYPE
  5
458D2
100
AcDbSymbolTableRecord
100
AcDbLinetypeTableRecord
  2
CONTINUOUS
 70
     0
  3
Solid line
 72
    65
 73
     0
 40
0.0
  0
ENDTAB
  0
TABLE
  2
LAYER
  5
458C1
100
AcDbSymbolTable
 70
     7
  0
LAYER
  5
458CD
100
AcDbSymbolTableRecord
100
AcDbLayerTableRecord
  2
0
 70
     0
 62
     7
  6
CONTINUOUS
  0
LAYER
  5
458EA
100
AcDbSymbolTableRecord
100
AcDbLayerTableRecord
  2
DIMS-MTG-HOLES
 70
     0
 62
     1
  6
CONTINUOUS
  0
LAYER
  5
458EB
100
AcDbSymbolTableRecord
100
AcDbLayerTableRecord
  2
ATTRIBUTES
 70
     0
 62
     7
  6
CONTINUOUS
  0
LAYER
  5
4593B
102
{ACAD_XDICTIONARY
360
4C269
102
}
100
AcDbSymbolTableRecord
100
AcDbLayerTableRecord
  2
AREA1
 70
     0
 62
    -7
  6
CONTINUOUS
  0
LAYER
  5
45940
102
{ACAD_XDICTIONARY
360
4C23E
102
}
100
AcDbSymbolTableRecord
100
AcDbLayerTableRecord
  2
DEFPOINTS
 70
     0
 62
    -7
  6
CONTINUOUS
  0
LAYER
  5
45954
100
AcDbSymbolTableRecord
100
AcDbLayerTableRecord
  2
SCALE
 70
     0
 62
    -7
  6
CONTINUOUS
  0
LAYER
  5
459D2
100
AcDbSymbolTableRecord
100
AcDbLayerTableRecord
  2
SNAP_POINTS
 70
     0
 62
    -1
  6
CONTINUOUS
  0
ENDTAB
  0
TABLE
  2
STYLE
  5
458C2
100
AcDbSymbolTable
 70
     1
  0
STYLE
  5
458CE
100
AcDbSymbolTableRecord
100
AcDbTextStyleTableRecord
  2
STANDARD
 70
     0
 40
0.0
 41
1.0
 50
0.0
 71
     0
 42
0.12
  3
txt
  4

  0
ENDTAB
  0
TABLE
  2
VIEW
  5
458C5
100
AcDbSymbolTable
 70
     0
  0
ENDTAB
  0
TABLE
  2
UCS
  5
458C6
100
AcDbSymbolTable
 70
     0
  0
ENDTAB
  0
TABLE
  2
APPID
  5
458C8
100
AcDbSymbolTable
 70
     1
  0
APPID
  5
458CF
100
AcDbSymbolTableRecord
100
AcDbRegAppTableRecord
  2
ACAD
 70
     0
  0
ENDTAB
  0
TABLE
  2
DIMSTYLE
  5
458C9
100
AcDbSymbolTable
 70
     1
  0
DIMSTYLE
105
458F6
102
{ACAD_XDICTIONARY
360
4C265
102
}
102
{ACAD_REACTORS
330
4C1F0
330
4C1FE
102
}
100
AcDbSymbolTableRecord
100
AcDbDimStyleTableRecord
  2
ABECAD_3D
 70
     0
  3

  4

  5

  6

  7

 40
1.0
 41
0.18
 42
0.0625
 43
0.375
 44
0.18
 45
0.0
 46
0.0
 47
0.0
 48
0.0
140
0.18
141
0.09
142
0.0
143
25.4
144
1.0
145
0.0
146
1.5
147
0.09
 71
     0
 72
     0
 73
     0
 74
     1
 75
     0
 76
     0
 77
     0
 78
     4
170
     1
171
     2
172
     0
173
     0
174
     0
175
     0
176
     0
177
     0
178
     0
270
     7
271
     6
272
     6
273
     2
274
     2
340
458CE
275
     0
280
     0
281
     0
282
     0
283
     1
284
     4
285
     4
286
     4
287
     5
288
     1
  0
ENDTAB
  0
TABLE
  2
BLOCK_RECORD
  5
458C0
100
AcDbSymbolTable
 70
     2
  0
BLOCK_RECORD
  5
458D6
102
{ACAD_XDICTIONARY
360
4592C
102
}
100
AcDbSymbolTableRecord
100
AcDbBlockTableRecord
  2
*MODEL_SPACE
  0
BLOCK_RECORD
  5
458D3
102
{ACAD_XDICTIONARY
360
4592A
102
}
100
AcDbSymbolTableRecord
100
AcDbBlockTableRecord
  2
*PAPER_SPACE
  0
BLOCK_RECORD
  5
4C1F1
100
AcDbSymbolTableRecord
100
AcDbBlockTableRecord
  2
*D0
  0
BLOCK_RECORD
  5
4C1FF
100
AcDbSymbolTableRecord
100
AcDbBlockTableRecord
  2
*D1
  0
ENDTAB
  0
ENDSEC
  0
SECTION
  2
BLOCKS
  0
BLOCK
  5
458DF
100
AcDbEntity
  8
0
100
AcDbBlockBegin
  2
*MODEL_SPACE
 70
     0
 10
0.0
 20
0.0
 30
0.0
  3
*MODEL_SPACE
  1

  0
ENDBLK
  5
458E0
100
AcDbEntity
  8
0
100
AcDbBlockEnd
  0
BLOCK
  5
458DD
100
AcDbEntity
 67
     1
  8
0
100
AcDbBlockBegin
  2
*PAPER_SPACE
 70
     0
 10
0.0
 20
0.0
 30
0.0
  3
*PAPER_SPACE
  1

  0
ENDBLK
  5
458DE
100
AcDbEntity
 67
     1
  8
0
100
AcDbBlockEnd
  0
BLOCK
  5
4C1FC
100
AcDbEntity
  8
0
100
AcDbBlockBegin
  2
*D0
 70
     1
 10
0.0
 20
0.0
 30
0.0
  3
*D0
  1

  0
LINE
  5
4C1F2
100
AcDbEntity
  8
AREA1
 62
     0
100
AcDbLine
 10
-1.2225
 20
0.28
 30
0.0
 11
-3.414247
 21
0.28
 31
0.0
1001
ACAD
1000
RTLwPs
1070
   158
  0
LINE
  5
4C1F3
100
AcDbEntity
  8
AREA1
 62
     0
100
AcDbLine
 10
-1.8425
 20
-5.72
 30
0.0
 11
-3.414247
 21
-5.72
 31
0.0
1001
ACAD
1000
RTLwPs
1070
   158
  0
LINE
  5
4C1F4
100
AcDbEntity
  8
AREA1
 62
     0
100
AcDbLine
 10
-3.234247
 20
0.1
 30
0.0
 11
-3.234247
 21
-2.010267
 31
0.0
1001
ACAD
1000
RTLwPs
1070
   158
  0
LINE
  5
4C1F5
100
AcDbEntity
  8
AREA1
 62
     0
100
AcDbLine
 10
-3.234247
 20
-5.54
 30
0.0
 11
-3.234247
 21
-3.600267
 31
0.0
1001
ACAD
1000
RTLwPs
1070
   158
  0
MTEXT
  5
4C1F6
100
AcDbEntity
  8
AREA1
 62
     0
100
AcDbMText
 10
-3.234247
 20
-2.805267
 30
0.0
 40
0.18
 41
0.0
 71
     5
 72
     1
  1
\A1;6 [152.40]
 11
0.0
 21
1.0
 31
0.0
1001
ACAD
1000
MTEXTBEGIN
1070
    73
1070
     1
1070
    44
1040
1.0
1070
    74
1070
     0
1000
MTEXTEND
1000
MTEXTBEGIN
1070
    73
1070
     1
1070
    44
1040
1.0
1070
    74
1070
     0
1000
MTEXTEND
  0
SOLID
  5
4C1F7
100
AcDbEntity
  8
AREA1
 62
     0
100
AcDbTrace
 10
-3.264247
 20
0.1
 30
0.0
 11
-3.204247
 21
0.1
 31
0.0
 12
-3.234247
 22
0.28
 32
0.0
 13
-3.234247
 23
0.28
 33
0.0
  0
SOLID
  5
4C1F8
100
AcDbEntity
  8
AREA1
 62
     0
100
AcDbTrace
 10
-3.264247
 20
-5.54
 30
0.0
 11
-3.204247
 21
-5.54
 31
0.0
 12
-3.234247
 22
-5.72
 32
0.0
 13
-3.234247
 23
-5.72
 33
0.0
  0
POINT
  5
4C1F9
100
AcDbEntity
  8
DEFPOINTS
 62
     0
100
AcDbPoint
 10
-1.16
 20
0.28
 30
0.0
  0
POINT
  5
4C1FA
100
AcDbEntity
  8
DEFPOINTS
 62
     0
100
AcDbPoint
 10
-1.78
 20
-5.72
 30
0.0
  0
POINT
  5
4C1FB
100
AcDbEntity
  8
DEFPOINTS
 62
     0
100
AcDbPoint
 10
-3.234247
 20
-5.72
 30
0.0
  0
ENDBLK
  5
4C1FD
100
AcDbEntity
  8
0
100
AcDbBlockEnd
  0
BLOCK
  5
4C20A
100
AcDbEntity
  8
0
100
AcDbBlockBegin
  2
*D1
 70
     1
 10
0.0
 20
0.0
 30
0.0
  3
*D1
  1

  0
LINE
  5
4C200
100
AcDbEntity
  8
AREA1
 62
     0
100
AcDbLine
 10
-1.78
 20
-0.2775
 30
0.0
 11
-1.78
 21
1.194686
 31
0.0
1001
ACAD
1000
RTLwPs
1070
   158
  0
LINE
  5
4C201
100
AcDbEntity
  8
AREA1
 62
     0
100
AcDbLine
 10
1.78
 20
-0.2775
 30
0.0
 11
1.78
 21
1.194686
 31
0.0
1001
ACAD
1000
RTLwPs
1070
   158
  0
LINE
  5
4C202
100
AcDbEntity
  8
AREA1
 62
     0
100
AcDbLine
 10
-1.6
 20
1.014686
 30
0.0
 11
-1.095265
 21
1.014686
 31
0.0
1001
ACAD
1000
RTLwPs
1070
   158
  0
LINE
  5
4C203
100
AcDbEntity
  8
AREA1
 62
     0
100
AcDbLine
 10
1.6
 20
1.014686
 30
0.0
 11
1.214735
 21
1.014686
 31
0.0
1001
ACAD
1000
RTLwPs
1070
   158
  0
MTEXT
  5
4C204
100
AcDbEntity
  8
AREA1
 62
     0
100
AcDbMText
 10
0.059735
 20
1.014686
 30
0.0
 40
0.18
 41
0.0
 71
     5
 72
     1
  1
\A1;3 9/16 [90.42]
1001
ACAD
1000
MTEXTBEGIN
1070
    73
1070
     1
1070
    44
1040
1.0
1070
    74
1070
     0
1000
MTEXTEND
1000
MTEXTBEGIN
1070
    73
1070
     1
1070
    44
1040
1.0
1070
    74
1070
     0
1000
MTEXTEND
  0
SOLID
  5
4C205
100
AcDbEntity
  8
AREA1
 62
     0
100
AcDbTrace
 10
-1.6
 20
1.044686
 30
0.0
 11
-1.6
 21
0.984686
 31
0.0
 12
-1.78
 22
1.014686
 32
0.0
 13
-1.78
 23
1.014686
 33
0.0
  0
SOLID
  5
4C206
100
AcDbEntity
  8
AREA1
 62
     0
100
AcDbTrace
 10
1.6
 20
1.044686
 30
0.0
 11
1.6
 21
0.984686
 31
0.0
 12
1.78
 22
1.014686
 32
0.0
 13
1.78
 23
1.014686
 33
0.0
  0
POINT
  5
4C207
100
AcDbEntity
  8
DEFPOINTS
 62
     0
100
AcDbPoint
 10
-1.78
 20
-0.34
 30
0.0
  0
POINT
  5
4C208
100
AcDbEntity
  8
DEFPOINTS
 62
     0
100
AcDbPoint
 10
1.78
 20
-0.34
 30
0.0
  0
POINT
  5
4C209
100
AcDbEntity
  8
DEFPOINTS
 62
     0
100
AcDbPoint
 10
1.78
 20
1.014686
 30
0.0
  0
ENDBLK
  5
4C20B
100
AcDbEntity
  8
0
100
AcDbBlockEnd
  0
ENDSEC
  0
SECTION
  2
ENTITIES
  0
CIRCLE
  5
4C00E
100
AcDbEntity
  8
0
100
AcDbCircle
 10
0.0
 20
-5.025
 30
1.81
 40
0.19
  0
POLYLINE
  5
4C00F
100
AcDbEntity
  8
0
100
AcDbPolygonMesh
 66
     1
 10
0.0
 20
0.0
 30
0.0
 70
    16
 71
     6
 72
     3
  0
VERTEX
  5
4C010
100
AcDbEntity
  8
0
100
AcDbVertex
100
AcDbPolygonMeshVertex
 10
0.25
 20
-5.23
 30
1.81
 70
    64
  0
VERTEX
  5
4C011
100
AcDbEntity
  8
0
100
AcDbVertex
100
AcDbPolygonMeshVertex
 10
0.25
 20
-5.23
 30
1.62
 70
    64
  0
VERTEX
  5
4C012
100
AcDbEntity
  8
0
100
AcDbVertex
100
AcDbPolygonMeshVertex
 10
0.25
 20
-5.23
 30
1.62
 70
    64
  0
VERTEX
  5
4C013
100
AcDbEntity
  8
0
100
AcDbVertex
100
AcDbPolygonMeshVertex
 10
-0.25
 20
-5.23
 30
1.81
 70
    64
  0
VERTEX
  5
4C014
100
AcDbEntity
  8
0
100
AcDbVertex
100
AcDbPolygonMeshVertex
 10
-0.25
 20
-5.23
 30
1.62
 70
    64
  0
VERTEX
  5
4C015
100
AcDbEntity
  8
0
100
AcDbVertex
100
AcDbPolygonMeshVertex
 10
-0.25
 20
-5.23
 30
1.62
 70
    64
  0
VERTEX
  5
4C016
100
AcDbEntity
  8
0
100
AcDbVertex
100
AcDbPolygonMeshVertex
 10
-0.25
 20
-4.82
 30
1.81
 70
    64
  0
VERTEX
  5
4C017
100
AcDbEntity
  8
0
100
AcDbVertex
100
AcDbPolygonMeshVertex
 10
-0.25
 20
-4.82
 30
1.62
 70
    64
  0
VERTEX
  5
4C018
100
AcDbEntity
  8
0
100
AcDbVertex
100
AcDbPolygonMeshVertex
 10
-0.25
 20
-5.23
 30
1.62
 70
    64
  0
VERTEX
  5
4C019
100
AcDbEntity
  8
0
100
AcDbVertex
100
AcDbPolygonMeshVertex
 10
0.25
 20
-4.82
 30
1.81
 70
    64
  0
VERTEX
  5
4C01A
100
AcDbEntity
  8
0
100
AcDbVertex
100
AcDbPolygonMeshVertex
 10
0.25
 20
-4.82
 30
1.62
 70
    64
  0
VERTEX
  5
4C01B
100
AcDbEntity
  8
0
100
AcDbVertex
100
AcDbPolygonMeshVertex
 10
0.25
 20
-5.23
 30
1.62
 70
    64
  0
VERTEX
  5
4C01C
100
AcDbEntity
  8
0
100
AcDbVertex
100
AcDbPolygonMeshVertex
 10
0.25
 20
-4.82
 30
1.81
 70
    64
  0
VERTEX
  5
4C01D
100
AcDbEntity
  8
0
100
AcDbVertex
100
AcDbPolygonMeshVertex
 10
0.25
 20
-4.82
 30
1.81
 70
    64
  0
VERTEX
  5
4C01E
100
AcDbEntity
  8
0
100
AcDbVertex
100
AcDbPolygonMeshVertex
 10
0.25
 20
-5.23
 30
1.81
 70
    64
  0
VERTEX
  5
4C01F
100
AcDbEntity
  8
0
100
AcDbVertex
100
AcDbPolygonMeshVertex
 10
-0.25
 20
-4.82
 30
1.81
 70
    64
  0
VERTEX
  5
4C020
100
AcDbEntity
  8
0
100
AcDbVertex
100
AcDbPolygonMeshVertex
 10
-0.25
 20
-4.82
 30
1.81
 70
    64
  0
VERTEX
  5
4C021
100
AcDbEntity
  8
0
100
AcDbVertex
100
AcDbPolygonMeshVertex
 10
-0.25
 20
-5.23
 30
1.81
 70
    64
  0
SEQEND
  5
4C022
100
AcDbEntity
  8
0
  0
CIRCLE
  5
4C023
100
AcDbEntity
  8
0
100
AcDbCircle
 10
1.06
 20
-5.025
 30
1.81
 40
0.19
  0
POLYLINE
  5
4C024
100
AcDbEntity
  8
0
100
AcDbPolygonMesh
 66
     1
 10
0.0
 20
0.0
 30
0.0
 70
    16
 71
     6
 72
     3
  0
VERTEX
  5
4C025
100
AcDbEntity
  8
0
100
AcDbVertex
100
AcDbPolygonMeshVertex
 10
1.31
 20
-5.23
 30
1.81
 70
    64
  0
VERTEX
  5
4C026
100
AcDbEntity
  8
0
100
AcDbVertex
100
AcDbPolygonMeshVertex
 10
1.31
 20
-5.23
 30
1.62
 70
    64
  0
VERTEX
  5
4C027
100
AcDbEntity
  8
0
100
AcDbVertex
100
AcDbPolygonMeshVertex
 10
1.31
 20
-5.23
 30
1.62
 70
    64
  0
VERTEX
  5
4C028
100
AcDbEntity
  8
0
100
AcDbVertex
100
AcDbPolygonMeshVertex
 10
0.81
 20
-5.23
 30
1.81
 70
    64
  0
VERTEX
  5
4C029
100
AcDbEntity
  8
0
100
AcDbVertex
100
AcDbPolygonMeshVertex
 10
0.81
 20
-5.23
 30
1.62
 70
    64
  0
VERTEX
  5
4C02A
100
AcDbEntity
  8
0
100
AcDbVertex
100
AcDbPolygonMeshVertex
 10
0.81
 20
-5.23
 30
1.62
 70
    64
  0
VERTEX
  5
4C02B
100
AcDbEntity
  8
0
100
AcDbVertex
100
AcDbPolygonMeshVertex
 10
0.81
 20
-4.82
 30
1.81
 70
    64
  0
VERTEX
  5
4C02C
100
AcDbEntity
  8
0
100
AcDbVertex
100
AcDbPolygonMeshVertex
 10
0.81
 20
-4.82
 30
1.62
 70
    64
  0
VERTEX
  5
4C02D
100
AcDbEntity
  8
0
100
AcDbVertex
100
AcDbPolygonMeshVertex
 10
0.81
 20
-5.23
 30
1.62
 70
    64
  0
VERTEX
  5
4C02E
100
AcDbEntity
  8
0
100
AcDbVertex
100
AcDbPolygonMeshVertex
 10
1.31
 20
-4.82
 30
1.81
 70
    64
  0
VERTEX
  5
4C02F
100
AcDbEntity
  8
0
100
AcDbVertex
100
AcDbPolygonMeshVertex
 10
1.31
 20
-4.82
 30
1.62
 70
    64
  0
VERTEX
  5
4C030
100
AcDbEntity
  8
0
100
AcDbVertex
100
AcDbPolygonMeshVertex
 10
1.31
 20
-5.23
 30
1.62
 70
    64
  0
VERTEX
  5
4C031
100
AcDbEntity
  8
0
100
AcDbVertex
100
AcDbPolygonMeshVertex
 10
1.31
 20
-4.82
 30
1.81
 70
    64
  0
VERTEX
  5
4C032
100
AcDbEntity
  8
0
100
AcDbVertex
100
AcDbPolygonMeshVertex
 10
1.31
 20
-4.82
 30
1.81
 70
    64
  0
VERTEX
  5
4C033
100
AcDbEntity
  8
0
100
AcDbVertex
100
AcDbPolygonMeshVertex
 10
1.31
 20
-5.23
 30
1.81
 70
    64
  0
VERTEX
  5
4C034
100
AcDbEntity
  8
0
100
AcDbVertex
100
AcDbPolygonMeshVertex
 10
0.81
 20
-4.82
 30
1.81
 70
    64
  0
VERTEX
  5
4C035
100
AcDbEntity
  8
0
100
AcDbVertex
100
AcDbPolygonMeshVertex
 10
0.81
 20
-4.82
 30
1.81
 70
    64
  0
VERTEX
  5
4C036
100
AcDbEntity
  8
0
100
AcDbVertex
100
AcDbPolygonMeshVertex
 10
0.81
 20
-5.23
 30
1.81
 70
    64
  0
SEQEND
  5
4C037
100
AcDbEntity
  8
0
  0
CIRCLE
  5
4C038
100
AcDbEntity
  8
0
100
AcDbCircle
 10
-1.06
 20
-5.025
 30
1.81
 40
0.19
  0
POLYLINE
  5
4C039
100
AcDbEntity
  8
0
100
AcDbPolygonMesh
 66
     1
 10
0.0
 20
0.0
 30
0.0
 70
    16
 71
     6
 72
     3
  0
VERTEX
  5
4C03A
100
AcDbEntity
  8
0
100
AcDbVertex
100
AcDbPolygonMeshVertex
 10
-0.81
 20
-5.23
 30
1.81
 70
    64
  0
VERTEX
  5
4C03B
100
AcDbEntity
  8
0
100
AcDbVertex
100
AcDbPolygonMeshVertex
 10
-0.81
 20
-5.23
 30
1.62
 70
    64
  0
VERTEX
  5
4C03C
100
AcDbEntity
  8
0
100
AcDbVertex
100
AcDbPolygonMeshVertex
 10
-0.81
 20
-5.23
 30
1.62
 70
    64
  0
VERTEX
  5
4C03D
100
AcDbEntity
  8
0
100
AcDbVertex
100
AcDbPolygonMeshVertex
 10
-1.31
 20
-5.23
 30
1.81
 70
    64
  0
VERTEX
  5
4C03E
100
AcDbEntity
  8
0
100
AcDbVertex
100
AcDbPolygonMeshVertex
 10
-1.31
 20
-5.23
 30
1.62
 70
    64
  0
VERTEX
  5
4C03F
100
AcDbEntity
  8
0
100
AcDbVertex
100
AcDbPolygonMeshVertex
 10
-1.31
 20
-5.23
 30
1.62
 70
    64
  0
VERTEX
  5
4C040
100
AcDbEntity
  8
0
100
AcDbVertex
100
AcDbPolygonMeshVertex
 10
-1.31
 20
-4.82
 30
1.81
 70
    64
  0
VERTEX
  5
4C041
100
AcDbEntity
  8
0
100
AcDbVertex
100
AcDbPolygonMeshVertex
 10
-1.31
 20
-4.82
 30
1.62
 70
    64
  0
VERTEX
  5
4C042
100
AcDbEntity
  8
0
100
AcDbVertex
100
AcDbPolygonMeshVertex
 10
-1.31
 20
-5.23
 30
1.62
 70
    64
  0
VERTEX
  5
4C043
100
AcDbEntity
  8
0
100
AcDbVertex
100
AcDbPolygonMeshVertex
 10
-0.81
 20
-4.82
 30
1.81
 70
    64
  0
VERTEX
  5
4C044
100
AcDbEntity
  8
0
100
AcDbVertex
100
AcDbPolygonMeshVertex
 10
-0.81
 20
-4.82
 30
1.62
 70
    64
  0
VERTEX
  5
4C045
100
AcDbEntity
  8
0
100
AcDbVertex
100
AcDbPolygonMeshVertex
 10
-0.81
 20
-5.23
 30
1.62
 70
    64
  0
VERTEX
  5
4C046
100
AcDbEntity
  8
0
100
AcDbVertex
100
AcDbPolygonMeshVertex
 10
-0.81
 20
-4.82
 30
1.81
 70
    64
  0
VERTEX
  5
4C047
100
AcDbEntity
  8
0
100
AcDbVertex
100
AcDbPolygonMeshVertex
 10
-0.81
 20
-4.82
 30
1.81
 70
    64
  0
VERTEX
  5
4C048
100
AcDbEntity
  8
0
100
AcDbVertex
100
AcDbPolygonMeshVertex
 10
-0.81
 20
-5.23
 30
1.81
 70
    64
  0
VERTEX
  5
4C049
100
AcDbEntity
  8
0
100
AcDbVertex
100
AcDbPolygonMeshVertex
 10
-1.31
 20
-4.82
 30
1.81
 70
    64
  0
VERTEX
  5
4C04A
100
AcDbEntity
  8
0
100
AcDbVertex
100
AcDbPolygonMeshVertex
 10
-1.31
 20
-4.82
 30
1.81
 70
    64
  0
VERTEX
  5
4C04B
100
AcDbEntity
  8
0
100
AcDbVertex
100
AcDbPolygonMeshVertex
 10
-1.31
 20
-5.23
 30
1.81
 70
    64
  0
SEQEND
  5
4C04C
100
AcDbEntity
  8
0
  0
ARC
  5
4C04D
100
AcDbEntity
  8
0
100
AcDbCircle
 10
0.0
 20
0.0
 30
0.19
 40
0.1015
100
AcDbArc
 50
0.0
 51
179.999985
  0
ARC
  5
4C04E
100
AcDbEntity
  8
0
100
AcDbCircle
 10
0.0
 20
-0.343
 30
0.19
 40
0.234
100
AcDbArc
 50
115.70649
 51
64.293579
  0
ARC
  5
4C04F
100
AcDbEntity
  8
0
100
AcDbCircle
 10
0.0
 20
-0.343
 30
0.0
 40
0.234
100
AcDbArc
 50
115.70649
 51
64.293579
  0
ARC
  5
4C050
100
AcDbEntity
  8
0
100
AcDbCircle
 10
0.0
 20
0.0
 30
0.0
 40
0.1015
100
AcDbArc
 50
0.0
 51
179.999985
  0
LINE
  5
4C051
100
AcDbEntity
  8
0
100
AcDbLine
 10
-1.475
 20
-5.5
 30
0.0
 11
-1.475
 21
-5.72
 31
0.0
  0
LINE
  5
4C052
100
AcDbEntity
  8
0
100
AcDbLine
 10
-1.475
 20
-5.5
 30
0.19
 11
-1.475
 21
-5.72
 31
0.19
  0
LINE
  5
4C053
100
AcDbEntity
  8
0
100
AcDbLine
 10
-1.275
 20
-5.72
 30
0.0
 11
-1.275
 21
-5.5
 31
0.0
  0
LINE
  5
4C054
100
AcDbEntity
  8
0
100
AcDbLine
 10
-1.275
 20
-5.72
 30
0.19
 11
-1.275
 21
-5.5
 31
0.19
  0
LINE
  5
4C055
100
AcDbEntity
  8
0
100
AcDbLine
 10
-1.275
 20
-5.72
 30
0.0
 11
-1.275
 21
-5.72
 31
0.19
  0
LINE
  5
4C056
100
AcDbEntity
  8
0
100
AcDbLine
 10
-1.475
 20
-5.72
 30
0.0
 11
-1.475
 21
-5.72
 31
0.19
  0
LINE
  5
4C057
100
AcDbEntity
  8
0
100
AcDbLine
 10
-1.475
 20
-5.5
 30
0.0
 11
-1.475
 21
-5.5
 31
0.19
  0
LINE
  5
4C058
100
AcDbEntity
  8
0
100
AcDbLine
 10
-1.275
 20
-5.5
 30
0.0
 11
-1.275
 21
-5.5
 31
0.19
  0
ARC
  5
4C059
100
AcDbEntity
  8
0
100
AcDbCircle
 10
-1.375
 20
-5.5
 30
0.0
 40
0.1
100
AcDbArc
 50
0.0
 51
179.999985
  0
ARC
  5
4C05A
100
AcDbEntity
  8
0
100
AcDbCircle
 10
-1.375
 20
-5.5
 30
0.19
 40
0.1
100
AcDbArc
 50
0.0
 51
179.999985
  0
LINE
  5
4C05B
100
AcDbEntity
  8
0
100
AcDbLine
 10
-0.579326
 20
-2.855015
 30
4.47
 11
-0.46471
 21
-3.005138
 31
4.47
  0
LINE
  5
4C05C
100
AcDbEntity
  8
0
100
AcDbLine
 10
-0.595515
 20
-2.871205
 30
4.47
 11
-0.480899
 21
-3.021327
 31
4.47
  0
CIRCLE
  5
4C05D
100
AcDbEntity
  8
0
100
AcDbCircle
 10
-0.53
 20
-2.94
 30
4.47
 40
0.095
  0
LINE
  5
4C05E
100
AcDbEntity
  8
0
100
AcDbLine
 10
-1.16
 20
0.28
 30
0.19
 11
-0.97
 21
0.28
 31
0.19
  0
LINE
  5
4C05F
100
AcDbEntity
  8
0
100
AcDbLine
 10
-1.16
 20
0.28
 30
0.0
 11
-0.97
 21
0.28
 31
0.0
  0
3DFACE
  5
4C060
100
AcDbEntity
  8
0
100
AcDbFace
 10
-0.97
 20
0.28
 30
0.19
 11
-1.16
 21
0.28
 31
0.19
 12
-1.16
 22
0.28
 32
0.0
 13
-0.97
 23
0.28
 33
0.0
 70
    14
  0
LINE
  5
4C061
100
AcDbEntity
  8
0
100
AcDbLine
 10
-1.78
 20
-0.34
 30
0.0
 11
-1.78
 21
-0.34
 31
0.19
  0
3DFACE
  5
4C062
100
AcDbEntity
  8
0
100
AcDbFace
 10
-0.38
 20
0.0
 30
0.19
 11
-0.87
 21
0.0
 31
0.19
 12
-0.87
 22
0.0
 32
0.0
 13
-0.38
 23
0.0
 33
0.0
 70
    14
  0
LINE
  5
4C063
100
AcDbEntity
  8
0
100
AcDbLine
 10
-0.87
 20
0.0
 30
0.19
 11
-0.38
 21
0.0
 31
0.19
  0
LINE
  5
4C064
100
AcDbEntity
  8
0
100
AcDbLine
 10
-0.87
 20
0.0
 30
0.0
 11
-0.38
 21
0.0
 31
0.0
  0
3DFACE
  5
4C065
100
AcDbEntity
  8
0
100
AcDbFace
 10
-0.87
 20
0.0
 30
0.19
 11
-0.97
 21
0.28
 31
0.19
 12
-0.97
 22
0.28
 32
0.0
 13
-0.87
 23
0.0
 33
0.0
 70
    14
  0
LINE
  5
4C066
100
AcDbEntity
  8
0
100
AcDbLine
 10
-0.97
 20
0.28
 30
0.19
 11
-0.87
 21
0.0
 31
0.19
  0
LINE
  5
4C067
100
AcDbEntity
  8
0
100
AcDbLine
 10
-0.97
 20
0.28
 30
0.0
 11
-0.87
 21
0.0
 31
0.0
  0
LINE
  5
4C068
100
AcDbEntity
  8
0
100
AcDbLine
 10
-0.87
 20
0.0
 30
0.0
 11
-0.87
 21
0.0
 31
0.19
  0
LINE
  5
4C069
100
AcDbEntity
  8
0
100
AcDbLine
 10
-0.97
 20
0.28
 30
0.0
 11
-0.97
 21
0.28
 31
0.19
  0
LINE
  5
4C06A
100
AcDbEntity
  8
0
100
AcDbLine
 10
-0.38
 20
0.0
 30
0.19
 11
-0.28
 21
0.28
 31
0.19
  0
LINE
  5
4C06B
100
AcDbEntity
  8
0
100
AcDbLine
 10
-0.38
 20
0.0
 30
0.0
 11
-0.28
 21
0.28
 31
0.0
  0
LINE
  5
4C06C
100
AcDbEntity
  8
0
100
AcDbLine
 10
-0.38
 20
0.0
 30
0.0
 11
-0.38
 21
0.0
 31
0.19
  0
LINE
  5
4C06D
100
AcDbEntity
  8
0
100
AcDbLine
 10
-0.1015
 20
0.0
 30
0.0
 11
-0.1015
 21
0.0
 31
0.19
  0
LINE
  5
4C06E
100
AcDbEntity
  8
0
100
AcDbLine
 10
-0.1015
 20
-0.132159
 30
0.0
 11
-0.1015
 21
-0.132159
 31
0.19
  0
LINE
  5
4C06F
100
AcDbEntity
  8
0
100
AcDbLine
 10
-0.1015
 20
0.0
 30
0.0
 11
-0.1015
 21
-0.132159
 31
0.0
  0
LINE
  5
4C070
100
AcDbEntity
  8
0
100
AcDbLine
 10
-0.1015
 20
0.0
 30
0.19
 11
-0.1015
 21
-0.132159
 31
0.19
  0
3DFACE
  5
4C071
100
AcDbEntity
  8
0
100
AcDbFace
 10
1.475
 20
-5.5
 30
0.19
 11
1.475
 21
-5.72
 31
0.19
 12
1.475
 22
-5.72
 32
0.0
 13
1.475
 23
-5.5
 33
0.0
 70
    14
  0
LINE
  5
4C072
100
AcDbEntity
  8
0
100
AcDbLine
 10
1.475
 20
-5.72
 30
0.0
 11
1.475
 21
-5.5
 31
0.0
  0
LINE
  5
4C073
100
AcDbEntity
  8
0
100
AcDbLine
 10
1.275
 20
-5.5
 30
0.0
 11
1.275
 21
-5.72
 31
0.0
  0
LINE
  5
4C074
100
AcDbEntity
  8
0
100
AcDbLine
 10
1.275
 20
-5.5
 30
0.19
 11
1.275
 21
-5.72
 31
0.19
  0
LINE
  5
4C075
100
AcDbEntity
  8
0
100
AcDbLine
 10
1.475
 20
-5.72
 30
0.19
 11
1.475
 21
-5.5
 31
0.19
  0
LINE
  5
4C076
100
AcDbEntity
  8
0
100
AcDbLine
 10
1.475
 20
-5.72
 30
0.0
 11
1.475
 21
-5.72
 31
0.19
  0
LINE
  5
4C077
100
AcDbEntity
  8
0
100
AcDbLine
 10
1.275
 20
-5.72
 30
0.0
 11
1.275
 21
-5.72
 31
0.19
  0
LINE
  5
4C078
100
AcDbEntity
  8
0
100
AcDbLine
 10
1.475
 20
-5.5
 30
0.0
 11
1.475
 21
-5.5
 31
0.19
  0
LINE
  5
4C079
100
AcDbEntity
  8
0
100
AcDbLine
 10
1.275
 20
-5.5
 30
0.0
 11
1.275
 21
-5.5
 31
0.19
  0
ARC
  5
4C07A
100
AcDbEntity
  8
0
100
AcDbCircle
 10
1.375
 20
-5.5
 30
0.0
 40
0.1
100
AcDbArc
 50
0.0
 51
179.999985
  0
ARC
  5
4C07B
100
AcDbEntity
  8
0
100
AcDbCircle
 10
1.375
 20
-5.5
 30
0.0
 40
0.1
100
AcDbArc
 50
0.0
 51
179.999985
  0
ARC
  5
4C07C
100
AcDbEntity
  8
0
100
AcDbCircle
 10
1.375
 20
-5.5
 30
0.19
 40
0.1
100
AcDbArc
 50
0.0
 51
179.999985
  0
LINE
  5
4C07D
100
AcDbEntity
  8
0
100
AcDbLine
 10
0.480674
 20
-2.855015
 30
4.47
 11
0.59529
 21
-3.005138
 31
4.47
  0
LINE
  5
4C07E
100
AcDbEntity
  8
0
100
AcDbLine
 10
0.464485
 20
-2.871205
 30
4.47
 11
0.5791
 21
-3.021327
 31
4.47
  0
CIRCLE
  5
4C07F
100
AcDbEntity
  8
0
100
AcDbCircle
 10
0.53
 20
-2.94
 30
4.47
 40
0.095
  0
CIRCLE
  5
4C080
100
AcDbEntity
  8
0
100
AcDbCircle
 10
0.38
 20
0.0
 30
0.19
 40
0.1
  0
CIRCLE
  5
4C081
100
AcDbEntity
  8
0
100
AcDbCircle
 10
0.38
 20
0.0
 30
0.0
 40
0.1
  0
LINE
  5
4C082
100
AcDbEntity
  8
0
100
AcDbLine
 10
0.48
 20
0.0
 30
0.0
 11
0.48
 21
0.0
 31
0.19
  0
LINE
  5
4C083
100
AcDbEntity
  8
0
100
AcDbLine
 10
0.1015
 20
0.0
 30
0.0
 11
0.1015
 21
0.0
 31
0.19
  0
LINE
  5
4C084
100
AcDbEntity
  8
0
100
AcDbLine
 10
0.1015
 20
-0.132159
 30
0.0
 11
0.1015
 21
-0.132159
 31
0.19
  0
LINE
  5
4C085
100
AcDbEntity
  8
0
100
AcDbLine
 10
0.1015
 20
0.0
 30
0.0
 11
0.1015
 21
-0.132159
 31
0.0
  0
LINE
  5
4C086
100
AcDbEntity
  8
0
100
AcDbLine
 10
0.1015
 20
0.0
 30
0.19
 11
0.1015
 21
-0.132159
 31
0.19
  0
CIRCLE
  5
4C087
100
AcDbEntity
  8
0
100
AcDbCircle
 10
1.06
 20
-0.795
 30
4.28
 40
0.19
  0
POLYLINE
  5
4C088
100
AcDbEntity
  8
0
100
AcDbPolygonMesh
 66
     1
 10
0.0
 20
0.0
 30
0.0
 70
    16
 71
     6
 72
     3
  0
VERTEX
  5
4C089
100
AcDbEntity
  8
0
100
AcDbVertex
100
AcDbPolygonMeshVertex
 10
0.94
 20
-3.47
 30
4.0
 70
    64
  0
VERTEX
  5
4C08A
100
AcDbEntity
  8
0
100
AcDbVertex
100
AcDbPolygonMeshVertex
 10
0.94
 20
-3.47
 30
3.63
 70
    64
  0
VERTEX
  5
4C08B
100
AcDbEntity
  8
0
100
AcDbVertex
100
AcDbPolygonMeshVertex
 10
0.94
 20
-3.47
 30
3.63
 70
    64
  0
VERTEX
  5
4C08C
100
AcDbEntity
  8
0
100
AcDbVertex
100
AcDbPolygonMeshVertex
 10
-0.94
 20
-3.47
 30
4.0
 70
    64
  0
VERTEX
  5
4C08D
100
AcDbEntity
  8
0
100
AcDbVertex
100
AcDbPolygonMeshVertex
 10
-0.94
 20
-3.47
 30
3.63
 70
    64
  0
VERTEX
  5
4C08E
100
AcDbEntity
  8
0
100
AcDbVertex
100
AcDbPolygonMeshVertex
 10
-0.94
 20
-3.47
 30
3.63
 70
    64
  0
VERTEX
  5
4C08F
100
AcDbEntity
  8
0
100
AcDbVertex
100
AcDbPolygonMeshVertex
 10
-0.94
 20
-2.63
 30
4.0
 70
    64
  0
VERTEX
  5
4C090
100
AcDbEntity
  8
0
100
AcDbVertex
100
AcDbPolygonMeshVertex
 10
-0.94
 20
-2.63
 30
3.63
 70
    64
  0
VERTEX
  5
4C091
100
AcDbEntity
  8
0
100
AcDbVertex
100
AcDbPolygonMeshVertex
 10
-0.94
 20
-3.47
 30
3.63
 70
    64
  0
VERTEX
  5
4C092
100
AcDbEntity
  8
0
100
AcDbVertex
100
AcDbPolygonMeshVertex
 10
0.94
 20
-2.63
 30
4.0
 70
    64
  0
VERTEX
  5
4C093
100
AcDbEntity
  8
0
100
AcDbVertex
100
AcDbPolygonMeshVertex
 10
0.94
 20
-2.63
 30
3.63
 70
    64
  0
VERTEX
  5
4C094
100
AcDbEntity
  8
0
100
AcDbVertex
100
AcDbPolygonMeshVertex
 10
0.94
 20
-3.47
 30
3.63
 70
    64
  0
VERTEX
  5
4C095
100
AcDbEntity
  8
0
100
AcDbVertex
100
AcDbPolygonMeshVertex
 10
0.94
 20
-2.63
 30
4.0
 70
    64
  0
VERTEX
  5
4C096
100
AcDbEntity
  8
0
100
AcDbVertex
100
AcDbPolygonMeshVertex
 10
0.94
 20
-2.63
 30
4.0
 70
    64
  0
VERTEX
  5
4C097
100
AcDbEntity
  8
0
100
AcDbVertex
100
AcDbPolygonMeshVertex
 10
0.94
 20
-3.47
 30
4.0
 70
    64
  0
VERTEX
  5
4C098
100
AcDbEntity
  8
0
100
AcDbVertex
100
AcDbPolygonMeshVertex
 10
-0.94
 20
-2.63
 30
4.0
 70
    64
  0
VERTEX
  5
4C099
100
AcDbEntity
  8
0
100
AcDbVertex
100
AcDbPolygonMeshVertex
 10
-0.94
 20
-2.63
 30
4.0
 70
    64
  0
VERTEX
  5
4C09A
100
AcDbEntity
  8
0
100
AcDbVertex
100
AcDbPolygonMeshVertex
 10
-0.94
 20
-3.47
 30
4.0
 70
    64
  0
SEQEND
  5
4C09B
100
AcDbEntity
  8
0
  0
POLYLINE
  5
4C09C
100
AcDbEntity
  8
0
100
AcDbPolygonMesh
 66
     1
 10
0.0
 20
0.0
 30
0.0
 70
    16
 71
     6
 72
     3
  0
VERTEX
  5
4C09D
100
AcDbEntity
  8
0
100
AcDbVertex
100
AcDbPolygonMeshVertex
 10
0.75
 20
-3.07
 30
4.47
 70
    64
  0
VERTEX
  5
4C09E
100
AcDbEntity
  8
0
100
AcDbVertex
100
AcDbPolygonMeshVertex
 10
0.75
 20
-3.07
 30
4.0
 70
    64
  0
VERTEX
  5
4C09F
100
AcDbEntity
  8
0
100
AcDbVertex
100
AcDbPolygonMeshVertex
 10
0.75
 20
-3.07
 30
4.0
 70
    64
  0
VERTEX
  5
4C0A0
100
AcDbEntity
  8
0
100
AcDbVertex
100
AcDbPolygonMeshVertex
 10
0.31
 20
-3.07
 30
4.47
 70
    64
  0
VERTEX
  5
4C0A1
100
AcDbEntity
  8
0
100
AcDbVertex
100
AcDbPolygonMeshVertex
 10
0.31
 20
-3.07
 30
4.0
 70
    64
  0
VERTEX
  5
4C0A2
100
AcDbEntity
  8
0
100
AcDbVertex
100
AcDbPolygonMeshVertex
 10
0.31
 20
-3.07
 30
4.0
 70
    64
  0
VERTEX
  5
4C0A3
100
AcDbEntity
  8
0
100
AcDbVertex
100
AcDbPolygonMeshVertex
 10
0.31
 20
-2.69
 30
4.47
 70
    64
  0
VERTEX
  5
4C0A4
100
AcDbEntity
  8
0
100
AcDbVertex
100
AcDbPolygonMeshVertex
 10
0.31
 20
-2.69
 30
4.0
 70
    64
  0
VERTEX
  5
4C0A5
100
AcDbEntity
  8
0
100
AcDbVertex
100
AcDbPolygonMeshVertex
 10
0.31
 20
-3.07
 30
4.0
 70
    64
  0
VERTEX
  5
4C0A6
100
AcDbEntity
  8
0
100
AcDbVertex
100
AcDbPolygonMeshVertex
 10
0.75
 20
-2.69
 30
4.47
 70
    64
  0
VERTEX
  5
4C0A7
100
AcDbEntity
  8
0
100
AcDbVertex
100
AcDbPolygonMeshVertex
 10
0.75
 20
-2.69
 30
4.0
 70
    64
  0
VERTEX
  5
4C0A8
100
AcDbEntity
  8
0
100
AcDbVertex
100
AcDbPolygonMeshVertex
 10
0.75
 20
-3.07
 30
4.0
 70
    64
  0
VERTEX
  5
4C0A9
100
AcDbEntity
  8
0
100
AcDbVertex
100
AcDbPolygonMeshVertex
 10
0.75
 20
-2.69
 30
4.47
 70
    64
  0
VERTEX
  5
4C0AA
100
AcDbEntity
  8
0
100
AcDbVertex
100
AcDbPolygonMeshVertex
 10
0.75
 20
-2.69
 30
4.47
 70
    64
  0
VERTEX
  5
4C0AB
100
AcDbEntity
  8
0
100
AcDbVertex
100
AcDbPolygonMeshVertex
 10
0.75
 20
-3.07
 30
4.47
 70
    64
  0
VERTEX
  5
4C0AC
100
AcDbEntity
  8
0
100
AcDbVertex
100
AcDbPolygonMeshVertex
 10
0.31
 20
-2.69
 30
4.47
 70
    64
  0
VERTEX
  5
4C0AD
100
AcDbEntity
  8
0
100
AcDbVertex
100
AcDbPolygonMeshVertex
 10
0.31
 20
-2.69
 30
4.47
 70
    64
  0
VERTEX
  5
4C0AE
100
AcDbEntity
  8
0
100
AcDbVertex
100
AcDbPolygonMeshVertex
 10
0.31
 20
-3.07
 30
4.47
 70
    64
  0
SEQEND
  5
4C0AF
100
AcDbEntity
  8
0
  0
POLYLINE
  5
4C0B0
100
AcDbEntity
  8
0
100
AcDbPolygonMesh
 66
     1
 10
0.0
 20
0.0
 30
0.0
 70
    16
 71
     6
 72
     3
  0
VERTEX
  5
4C0B1
100
AcDbEntity
  8
0
100
AcDbVertex
100
AcDbPolygonMeshVertex
 10
-0.31
 20
-3.07
 30
4.47
 70
    64
  0
VERTEX
  5
4C0B2
100
AcDbEntity
  8
0
100
AcDbVertex
100
AcDbPolygonMeshVertex
 10
-0.31
 20
-3.07
 30
4.0
 70
    64
  0
VERTEX
  5
4C0B3
100
AcDbEntity
  8
0
100
AcDbVertex
100
AcDbPolygonMeshVertex
 10
-0.31
 20
-3.07
 30
4.0
 70
    64
  0
VERTEX
  5
4C0B4
100
AcDbEntity
  8
0
100
AcDbVertex
100
AcDbPolygonMeshVertex
 10
-0.75
 20
-3.07
 30
4.47
 70
    64
  0
VERTEX
  5
4C0B5
100
AcDbEntity
  8
0
100
AcDbVertex
100
AcDbPolygonMeshVertex
 10
-0.75
 20
-3.07
 30
4.0
 70
    64
  0
VERTEX
  5
4C0B6
100
AcDbEntity
  8
0
100
AcDbVertex
100
AcDbPolygonMeshVertex
 10
-0.75
 20
-3.07
 30
4.0
 70
    64
  0
VERTEX
  5
4C0B7
100
AcDbEntity
  8
0
100
AcDbVertex
100
AcDbPolygonMeshVertex
 10
-0.75
 20
-2.69
 30
4.47
 70
    64
  0
VERTEX
  5
4C0B8
100
AcDbEntity
  8
0
100
AcDbVertex
100
AcDbPolygonMeshVertex
 10
-0.75
 20
-2.69
 30
4.0
 70
    64
  0
VERTEX
  5
4C0B9
100
AcDbEntity
  8
0
100
AcDbVertex
100
AcDbPolygonMeshVertex
 10
-0.75
 20
-3.07
 30
4.0
 70
    64
  0
VERTEX
  5
4C0BA
100
AcDbEntity
  8
0
100
AcDbVertex
100
AcDbPolygonMeshVertex
 10
-0.31
 20
-2.69
 30
4.47
 70
    64
  0
VERTEX
  5
4C0BB
100
AcDbEntity
  8
0
100
AcDbVertex
100
AcDbPolygonMeshVertex
 10
-0.31
 20
-2.69
 30
4.0
 70
    64
  0
VERTEX
  5
4C0BC
100
AcDbEntity
  8
0
100
AcDbVertex
100
AcDbPolygonMeshVertex
 10
-0.31
 20
-3.07
 30
4.0
 70
    64
  0
VERTEX
  5
4C0BD
100
AcDbEntity
  8
0
100
AcDbVertex
100
AcDbPolygonMeshVertex
 10
-0.31
 20
-2.69
 30
4.47
 70
    64
  0
VERTEX
  5
4C0BE
100
AcDbEntity
  8
0
100
AcDbVertex
100
AcDbPolygonMeshVertex
 10
-0.31
 20
-2.69
 30
4.47
 70
    64
  0
VERTEX
  5
4C0BF
100
AcDbEntity
  8
0
100
AcDbVertex
100
AcDbPolygonMeshVertex
 10
-0.31
 20
-3.07
 30
4.47
 70
    64
  0
VERTEX
  5
4C0C0
100
AcDbEntity
  8
0
100
AcDbVertex
100
AcDbPolygonMeshVertex
 10
-0.75
 20
-2.69
 30
4.47
 70
    64
  0
VERTEX
  5
4C0C1
100
AcDbEntity
  8
0
100
AcDbVertex
100
AcDbPolygonMeshVertex
 10
-0.75
 20
-2.69
 30
4.47
 70
    64
  0
VERTEX
  5
4C0C2
100
AcDbEntity
  8
0
100
AcDbVertex
100
AcDbPolygonMeshVertex
 10
-0.75
 20
-3.07
 30
4.47
 70
    64
  0
SEQEND
  5
4C0C3
100
AcDbEntity
  8
0
  0
LINE
  5
4C0C4
100
AcDbEntity
  8
0
100
AcDbLine
 10
-1.68
 20
-1.18
 30
3.63
 11
-1.68
 21
-1.18
 31
0.19
  0
POLYLINE
  5
4C0C5
100
AcDbEntity
  8
0
100
AcDbPolygonMesh
 66
     1
 10
0.0
 20
0.0
 30
0.0
 70
    16
 71
     6
 72
     3
  0
VERTEX
  5
4C0C6
100
AcDbEntity
  8
0
100
AcDbVertex
100
AcDbPolygonMeshVertex
 10
1.68
 20
-4.57
 30
3.63
 70
    64
  0
VERTEX
  5
4C0C7
100
AcDbEntity
  8
0
100
AcDbVertex
100
AcDbPolygonMeshVertex
 10
1.68
 20
-4.57
 30
0.19
 70
    64
  0
VERTEX
  5
4C0C8
100
AcDbEntity
  8
0
100
AcDbVertex
100
AcDbPolygonMeshVertex
 10
1.68
 20
-4.57
 30
0.19
 70
    64
  0
VERTEX
  5
4C0C9
100
AcDbEntity
  8
0
100
AcDbVertex
100
AcDbPolygonMeshVertex
 10
-1.68
 20
-4.57
 30
3.63
 70
    64
  0
VERTEX
  5
4C0CA
100
AcDbEntity
  8
0
100
AcDbVertex
100
AcDbPolygonMeshVertex
 10
-1.68
 20
-4.57
 30
0.19
 70
    64
  0
VERTEX
  5
4C0CB
100
AcDbEntity
  8
0
100
AcDbVertex
100
AcDbPolygonMeshVertex
 10
-1.68
 20
-4.57
 30
0.19
 70
    64
  0
VERTEX
  5
4C0CC
100
AcDbEntity
  8
0
100
AcDbVertex
100
AcDbPolygonMeshVertex
 10
-1.68
 20
-1.18
 30
3.63
 70
    64
  0
VERTEX
  5
4C0CD
100
AcDbEntity
  8
0
100
AcDbVertex
100
AcDbPolygonMeshVertex
 10
-1.68
 20
-1.18
 30
0.19
 70
    64
  0
VERTEX
  5
4C0CE
100
AcDbEntity
  8
0
100
AcDbVertex
100
AcDbPolygonMeshVertex
 10
-1.68
 20
-4.57
 30
0.19
 70
    64
  0
VERTEX
  5
4C0CF
100
AcDbEntity
  8
0
100
AcDbVertex
100
AcDbPolygonMeshVertex
 10
1.68
 20
-1.18
 30
3.63
 70
    64
  0
VERTEX
  5
4C0D0
100
AcDbEntity
  8
0
100
AcDbVertex
100
AcDbPolygonMeshVertex
 10
1.68
 20
-1.18
 30
0.19
 70
    64
  0
VERTEX
  5
4C0D1
100
AcDbEntity
  8
0
100
AcDbVertex
100
AcDbPolygonMeshVertex
 10
1.68
 20
-4.57
 30
0.19
 70
    64
  0
VERTEX
  5
4C0D2
100
AcDbEntity
  8
0
100
AcDbVertex
100
AcDbPolygonMeshVertex
 10
1.68
 20
-1.18
 30
3.63
 70
    64
  0
VERTEX
  5
4C0D3
100
AcDbEntity
  8
0
100
AcDbVertex
100
AcDbPolygonMeshVertex
 10
1.68
 20
-1.18
 30
3.63
 70
    64
  0
VERTEX
  5
4C0D4
100
AcDbEntity
  8
0
100
AcDbVertex
100
AcDbPolygonMeshVertex
 10
1.68
 20
-4.57
 30
3.63
 70
    64
  0
VERTEX
  5
4C0D5
100
AcDbEntity
  8
0
100
AcDbVertex
100
AcDbPolygonMeshVertex
 10
-1.68
 20
-1.18
 30
3.63
 70
    64
  0
VERTEX
  5
4C0D6
100
AcDbEntity
  8
0
100
AcDbVertex
100
AcDbPolygonMeshVertex
 10
-1.68
 20
-1.18
 30
3.63
 70
    64
  0
VERTEX
  5
4C0D7
100
AcDbEntity
  8
0
100
AcDbVertex
100
AcDbPolygonMeshVertex
 10
-1.68
 20
-4.57
 30
3.63
 70
    64
  0
SEQEND
  5
4C0D8
100
AcDbEntity
  8
0
  0
POLYLINE
  5
4C0D9
100
AcDbEntity
  8
0
100
AcDbPolygonMesh
 66
     1
 10
0.0
 20
0.0
 30
0.0
 70
    16
 71
     6
 72
     3
  0
VERTEX
  5
4C0DA
100
AcDbEntity
  8
0
100
AcDbVertex
100
AcDbPolygonMeshVertex
 10
1.68
 20
-4.82
 30
2.85
 70
    64
  0
VERTEX
  5
4C0DB
100
AcDbEntity
  8
0
100
AcDbVertex
100
AcDbPolygonMeshVertex
 10
1.68
 20
-4.82
 30
1.62
 70
    64
  0
VERTEX
  5
4C0DC
100
AcDbEntity
  8
0
100
AcDbVertex
100
AcDbPolygonMeshVertex
 10
1.68
 20
-4.82
 30
1.62
 70
    64
  0
VERTEX
  5
4C0DD
100
AcDbEntity
  8
0
100
AcDbVertex
100
AcDbPolygonMeshVertex
 10
-1.68
 20
-4.82
 30
2.85
 70
    64
  0
VERTEX
  5
4C0DE
100
AcDbEntity
  8
0
100
AcDbVertex
100
AcDbPolygonMeshVertex
 10
-1.68
 20
-4.82
 30
1.62
 70
    64
  0
VERTEX
  5
4C0DF
100
AcDbEntity
  8
0
100
AcDbVertex
100
AcDbPolygonMeshVertex
 10
-1.68
 20
-4.82
 30
1.62
 70
    64
  0
VERTEX
  5
4C0E0
100
AcDbEntity
  8
0
100
AcDbVertex
100
AcDbPolygonMeshVertex
 10
-1.68
 20
-4.57
 30
2.85
 70
    64
  0
VERTEX
  5
4C0E1
100
AcDbEntity
  8
0
100
AcDbVertex
100
AcDbPolygonMeshVertex
 10
-1.68
 20
-4.57
 30
1.62
 70
    64
  0
VERTEX
  5
4C0E2
100
AcDbEntity
  8
0
100
AcDbVertex
100
AcDbPolygonMeshVertex
 10
-1.68
 20
-4.82
 30
1.62
 70
    64
  0
VERTEX
  5
4C0E3
100
AcDbEntity
  8
0
100
AcDbVertex
100
AcDbPolygonMeshVertex
 10
1.68
 20
-4.57
 30
2.85
 70
    64
  0
VERTEX
  5
4C0E4
100
AcDbEntity
  8
0
100
AcDbVertex
100
AcDbPolygonMeshVertex
 10
1.68
 20
-4.57
 30
1.62
 70
    64
  0
VERTEX
  5
4C0E5
100
AcDbEntity
  8
0
100
AcDbVertex
100
AcDbPolygonMeshVertex
 10
1.68
 20
-4.82
 30
1.62
 70
    64
  0
VERTEX
  5
4C0E6
100
AcDbEntity
  8
0
100
AcDbVertex
100
AcDbPolygonMeshVertex
 10
1.68
 20
-4.57
 30
2.85
 70
    64
  0
VERTEX
  5
4C0E7
100
AcDbEntity
  8
0
100
AcDbVertex
100
AcDbPolygonMeshVertex
 10
1.68
 20
-4.57
 30
2.85
 70
    64
  0
VERTEX
  5
4C0E8
100
AcDbEntity
  8
0
100
AcDbVertex
100
AcDbPolygonMeshVertex
 10
1.68
 20
-4.82
 30
2.85
 70
    64
  0
VERTEX
  5
4C0E9
100
AcDbEntity
  8
0
100
AcDbVertex
100
AcDbPolygonMeshVertex
 10
-1.68
 20
-4.57
 30
2.85
 70
    64
  0
VERTEX
  5
4C0EA
100
AcDbEntity
  8
0
100
AcDbVertex
100
AcDbPolygonMeshVertex
 10
-1.68
 20
-4.57
 30
2.85
 70
    64
  0
VERTEX
  5
4C0EB
100
AcDbEntity
  8
0
100
AcDbVertex
100
AcDbPolygonMeshVertex
 10
-1.68
 20
-4.82
 30
2.85
 70
    64
  0
SEQEND
  5
4C0EC
100
AcDbEntity
  8
0
  0
POLYLINE
  5
4C0ED
100
AcDbEntity
  8
0
100
AcDbPolygonMesh
 66
     1
 10
0.0
 20
0.0
 30
0.0
 70
    16
 71
     6
 72
     3
  0
VERTEX
  5
4C0EE
100
AcDbEntity
  8
0
100
AcDbVertex
100
AcDbPolygonMeshVertex
 10
-1.68
 20
-4.57
 30
0.19
 70
    64
  0
VERTEX
  5
4C0EF
100
AcDbEntity
  8
0
100
AcDbVertex
100
AcDbPolygonMeshVertex
 10
-1.68
 20
-4.57
 30
0.19
 70
    64
  0
VERTEX
  5
4C0F0
100
AcDbEntity
  8
0
100
AcDbVertex
100
AcDbPolygonMeshVertex
 10
-1.68
 20
-4.57
 30
0.19
 70
    64
  0
VERTEX
  5
4C0F1
100
AcDbEntity
  8
0
100
AcDbVertex
100
AcDbPolygonMeshVertex
 10
-1.68
 20
-4.82
 30
1.62
 70
    64
  0
VERTEX
  5
4C0F2
100
AcDbEntity
  8
0
100
AcDbVertex
100
AcDbPolygonMeshVertex
 10
-1.68
 20
-4.57
 30
1.62
 70
    64
  0
VERTEX
  5
4C0F3
100
AcDbEntity
  8
0
100
AcDbVertex
100
AcDbPolygonMeshVertex
 10
-1.68
 20
-4.57
 30
1.62
 70
    64
  0
VERTEX
  5
4C0F4
100
AcDbEntity
  8
0
100
AcDbVertex
100
AcDbPolygonMeshVertex
 10
1.68
 20
-4.82
 30
1.62
 70
    64
  0
VERTEX
  5
4C0F5
100
AcDbEntity
  8
0
100
AcDbVertex
100
AcDbPolygonMeshVertex
 10
1.68
 20
-4.57
 30
1.62
 70
    64
  0
VERTEX
  5
4C0F6
100
AcDbEntity
  8
0
100
AcDbVertex
100
AcDbPolygonMeshVertex
 10
-1.68
 20
-4.57
 30
1.62
 70
    64
  0
VERTEX
  5
4C0F7
100
AcDbEntity
  8
0
100
AcDbVertex
100
AcDbPolygonMeshVertex
 10
1.68
 20
-4.57
 30
0.19
 70
    64
  0
VERTEX
  5
4C0F8
100
AcDbEntity
  8
0
100
AcDbVertex
100
AcDbPolygonMeshVertex
 10
1.68
 20
-4.57
 30
0.19
 70
    64
  0
VERTEX
  5
4C0F9
100
AcDbEntity
  8
0
100
AcDbVertex
100
AcDbPolygonMeshVertex
 10
-1.68
 20
-4.57
 30
0.19
 70
    64
  0
VERTEX
  5
4C0FA
100
AcDbEntity
  8
0
100
AcDbVertex
100
AcDbPolygonMeshVertex
 10
1.68
 20
-4.57
 30
0.19
 70
    64
  0
VERTEX
  5
4C0FB
100
AcDbEntity
  8
0
100
AcDbVertex
100
AcDbPolygonMeshVertex
 10
1.68
 20
-4.57
 30
0.19
 70
    64
  0
VERTEX
  5
4C0FC
100
AcDbEntity
  8
0
100
AcDbVertex
100
AcDbPolygonMeshVertex
 10
-1.68
 20
-4.57
 30
0.19
 70
    64
  0
VERTEX
  5
4C0FD
100
AcDbEntity
  8
0
100
AcDbVertex
100
AcDbPolygonMeshVertex
 10
1.68
 20
-4.82
 30
1.62
 70
    64
  0
VERTEX
  5
4C0FE
100
AcDbEntity
  8
0
100
AcDbVertex
100
AcDbPolygonMeshVertex
 10
1.68
 20
-4.82
 30
1.62
 70
    64
  0
VERTEX
  5
4C0FF
100
AcDbEntity
  8
0
100
AcDbVertex
100
AcDbPolygonMeshVertex
 10
-1.68
 20
-4.82
 30
1.62
 70
    64
  0
SEQEND
  5
4C100
100
AcDbEntity
  8
0
  0
POLYLINE
  5
4C101
100
AcDbEntity
  8
0
100
AcDbPolygonMesh
 66
     1
 10
0.0
 20
0.0
 30
0.0
 70
    16
 71
     6
 72
     3
  0
VERTEX
  5
4C102
100
AcDbEntity
  8
0
100
AcDbVertex
100
AcDbPolygonMeshVertex
 10
1.68
 20
-1.18
 30
4.09
 70
    64
  0
VERTEX
  5
4C103
100
AcDbEntity
  8
0
100
AcDbVertex
100
AcDbPolygonMeshVertex
 10
1.68
 20
-1.18
 30
0.19
 70
    64
  0
VERTEX
  5
4C104
100
AcDbEntity
  8
0
100
AcDbVertex
100
AcDbPolygonMeshVertex
 10
1.68
 20
-1.18
 30
0.19
 70
    64
  0
VERTEX
  5
4C105
100
AcDbEntity
  8
0
100
AcDbVertex
100
AcDbPolygonMeshVertex
 10
-1.68
 20
-1.18
 30
4.09
 70
    64
  0
VERTEX
  5
4C106
100
AcDbEntity
  8
0
100
AcDbVertex
100
AcDbPolygonMeshVertex
 10
-1.68
 20
-1.18
 30
0.19
 70
    64
  0
VERTEX
  5
4C107
100
AcDbEntity
  8
0
100
AcDbVertex
100
AcDbPolygonMeshVertex
 10
-1.68
 20
-1.18
 30
0.19
 70
    64
  0
VERTEX
  5
4C108
100
AcDbEntity
  8
0
100
AcDbVertex
100
AcDbPolygonMeshVertex
 10
-1.68
 20
-0.5
 30
4.09
 70
    64
  0
VERTEX
  5
4C109
100
AcDbEntity
  8
0
100
AcDbVertex
100
AcDbPolygonMeshVertex
 10
-1.68
 20
-0.5
 30
0.19
 70
    64
  0
VERTEX
  5
4C10A
100
AcDbEntity
  8
0
100
AcDbVertex
100
AcDbPolygonMeshVertex
 10
-1.68
 20
-1.18
 30
0.19
 70
    64
  0
VERTEX
  5
4C10B
100
AcDbEntity
  8
0
100
AcDbVertex
100
AcDbPolygonMeshVertex
 10
1.68
 20
-0.5
 30
4.09
 70
    64
  0
VERTEX
  5
4C10C
100
AcDbEntity
  8
0
100
AcDbVertex
100
AcDbPolygonMeshVertex
 10
1.68
 20
-0.5
 30
0.19
 70
    64
  0
VERTEX
  5
4C10D
100
AcDbEntity
  8
0
100
AcDbVertex
100
AcDbPolygonMeshVertex
 10
1.68
 20
-1.18
 30
0.19
 70
    64
  0
VERTEX
  5
4C10E
100
AcDbEntity
  8
0
100
AcDbVertex
100
AcDbPolygonMeshVertex
 10
1.68
 20
-0.5
 30
4.09
 70
    64
  0
VERTEX
  5
4C10F
100
AcDbEntity
  8
0
100
AcDbVertex
100
AcDbPolygonMeshVertex
 10
1.68
 20
-0.5
 30
4.09
 70
    64
  0
VERTEX
  5
4C110
100
AcDbEntity
  8
0
100
AcDbVertex
100
AcDbPolygonMeshVertex
 10
1.68
 20
-1.18
 30
4.09
 70
    64
  0
VERTEX
  5
4C111
100
AcDbEntity
  8
0
100
AcDbVertex
100
AcDbPolygonMeshVertex
 10
-1.68
 20
-0.5
 30
4.09
 70
    64
  0
VERTEX
  5
4C112
100
AcDbEntity
  8
0
100
AcDbVertex
100
AcDbPolygonMeshVertex
 10
-1.68
 20
-0.5
 30
4.09
 70
    64
  0
VERTEX
  5
4C113
100
AcDbEntity
  8
0
100
AcDbVertex
100
AcDbPolygonMeshVertex
 10
-1.68
 20
-1.18
 30
4.09
 70
    64
  0
SEQEND
  5
4C114
100
AcDbEntity
  8
0
  0
LINE
  5
4C115
100
AcDbEntity
  8
0
100
AcDbLine
 10
0.62
 20
-0.5
 30
4.09
 11
0.62
 21
-0.37
 31
4.09
  0
LINE
  5
4C116
100
AcDbEntity
  8
0
100
AcDbLine
 10
0.62
 20
-0.37
 30
4.09
 11
0.44
 21
-0.37
 31
4.09
  0
POLYLINE
  5
4C117
100
AcDbEntity
  8
0
100
AcDbPolygonMesh
 66
     1
 10
0.0
 20
0.0
 30
0.0
 70
    16
 71
     6
 72
     3
  0
VERTEX
  5
4C118
100
AcDbEntity
  8
0
100
AcDbVertex
100
AcDbPolygonMeshVertex
 10
0.44
 20
-0.37
 30
4.47
 70
    64
  0
VERTEX
  5
4C119
100
AcDbEntity
  8
0
100
AcDbVertex
100
AcDbPolygonMeshVertex
 10
0.44
 20
-0.37
 30
4.09
 70
    64
  0
VERTEX
  5
4C11A
100
AcDbEntity
  8
0
100
AcDbVertex
100
AcDbPolygonMeshVertex
 10
0.44
 20
-0.37
 30
4.09
 70
    64
  0
VERTEX
  5
4C11B
100
AcDbEntity
  8
0
100
AcDbVertex
100
AcDbPolygonMeshVertex
 10
0.62
 20
-0.37
 30
4.47
 70
    64
  0
VERTEX
  5
4C11C
100
AcDbEntity
  8
0
100
AcDbVertex
100
AcDbPolygonMeshVertex
 10
0.62
 20
-0.37
 30
4.09
 70
    64
  0
VERTEX
  5
4C11D
100
AcDbEntity
  8
0
100
AcDbVertex
100
AcDbPolygonMeshVertex
 10
0.62
 20
-0.37
 30
4.09
 70
    64
  0
VERTEX
  5
4C11E
100
AcDbEntity
  8
0
100
AcDbVertex
100
AcDbPolygonMeshVertex
 10
0.62
 20
-1.18
 30
4.47
 70
    64
  0
VERTEX
  5
4C11F
100
AcDbEntity
  8
0
100
AcDbVertex
100
AcDbPolygonMeshVertex
 10
0.62
 20
-1.18
 30
4.09
 70
    64
  0
VERTEX
  5
4C120
100
AcDbEntity
  8
0
100
AcDbVertex
100
AcDbPolygonMeshVertex
 10
0.62
 20
-0.37
 30
4.09
 70
    64
  0
VERTEX
  5
4C121
100
AcDbEntity
  8
0
100
AcDbVertex
100
AcDbPolygonMeshVertex
 10
0.44
 20
-1.18
 30
4.47
 70
    64
  0
VERTEX
  5
4C122
100
AcDbEntity
  8
0
100
AcDbVertex
100
AcDbPolygonMeshVertex
 10
0.44
 20
-1.18
 30
4.09
 70
    64
  0
VERTEX
  5
4C123
100
AcDbEntity
  8
0
100
AcDbVertex
100
AcDbPolygonMeshVertex
 10
0.44
 20
-0.37
 30
4.09
 70
    64
  0
VERTEX
  5
4C124
100
AcDbEntity
  8
0
100
AcDbVertex
100
AcDbPolygonMeshVertex
 10
0.44
 20
-1.18
 30
4.47
 70
    64
  0
VERTEX
  5
4C125
100
AcDbEntity
  8
0
100
AcDbVertex
100
AcDbPolygonMeshVertex
 10
0.44
 20
-1.18
 30
4.47
 70
    64
  0
VERTEX
  5
4C126
100
AcDbEntity
  8
0
100
AcDbVertex
100
AcDbPolygonMeshVertex
 10
0.44
 20
-0.37
 30
4.47
 70
    64
  0
VERTEX
  5
4C127
100
AcDbEntity
  8
0
100
AcDbVertex
100
AcDbPolygonMeshVertex
 10
0.62
 20
-1.18
 30
4.47
 70
    64
  0
VERTEX
  5
4C128
100
AcDbEntity
  8
0
100
AcDbVertex
100
AcDbPolygonMeshVertex
 10
0.62
 20
-1.18
 30
4.47
 70
    64
  0
VERTEX
  5
4C129
100
AcDbEntity
  8
0
100
AcDbVertex
100
AcDbPolygonMeshVertex
 10
0.62
 20
-0.37
 30
4.47
 70
    64
  0
SEQEND
  5
4C12A
100
AcDbEntity
  8
0
  0
POLYLINE
  5
4C12B
100
AcDbEntity
  8
0
100
AcDbPolygonMesh
 66
     1
 10
0.0
 20
0.0
 30
0.0
 70
    16
 71
     6
 72
     3
  0
VERTEX
  5
4C12C
100
AcDbEntity
  8
0
100
AcDbVertex
100
AcDbPolygonMeshVertex
 10
0.44
 20
-0.37
 30
4.09
 70
    64
  0
VERTEX
  5
4C12D
100
AcDbEntity
  8
0
100
AcDbVertex
100
AcDbPolygonMeshVertex
 10
0.44
 20
-0.37
 30
2.97
 70
    64
  0
VERTEX
  5
4C12E
100
AcDbEntity
  8
0
100
AcDbVertex
100
AcDbPolygonMeshVertex
 10
0.44
 20
-0.37
 30
2.97
 70
    64
  0
VERTEX
  5
4C12F
100
AcDbEntity
  8
0
100
AcDbVertex
100
AcDbPolygonMeshVertex
 10
0.62
 20
-0.37
 30
4.09
 70
    64
  0
VERTEX
  5
4C130
100
AcDbEntity
  8
0
100
AcDbVertex
100
AcDbPolygonMeshVertex
 10
0.62
 20
-0.37
 30
2.97
 70
    64
  0
VERTEX
  5
4C131
100
AcDbEntity
  8
0
100
AcDbVertex
100
AcDbPolygonMeshVertex
 10
0.62
 20
-0.37
 30
2.97
 70
    64
  0
VERTEX
  5
4C132
100
AcDbEntity
  8
0
100
AcDbVertex
100
AcDbPolygonMeshVertex
 10
0.62
 20
-0.5
 30
4.09
 70
    64
  0
VERTEX
  5
4C133
100
AcDbEntity
  8
0
100
AcDbVertex
100
AcDbPolygonMeshVertex
 10
0.62
 20
-0.5
 30
2.97
 70
    64
  0
VERTEX
  5
4C134
100
AcDbEntity
  8
0
100
AcDbVertex
100
AcDbPolygonMeshVertex
 10
0.62
 20
-0.37
 30
2.97
 70
    64
  0
VERTEX
  5
4C135
100
AcDbEntity
  8
0
100
AcDbVertex
100
AcDbPolygonMeshVertex
 10
0.44
 20
-0.5
 30
4.09
 70
    64
  0
VERTEX
  5
4C136
100
AcDbEntity
  8
0
100
AcDbVertex
100
AcDbPolygonMeshVertex
 10
0.44
 20
-0.5
 30
2.97
 70
    64
  0
VERTEX
  5
4C137
100
AcDbEntity
  8
0
100
AcDbVertex
100
AcDbPolygonMeshVertex
 10
0.44
 20
-0.37
 30
2.97
 70
    64
  0
VERTEX
  5
4C138
100
AcDbEntity
  8
0
100
AcDbVertex
100
AcDbPolygonMeshVertex
 10
0.44
 20
-0.5
 30
4.09
 70
    64
  0
VERTEX
  5
4C139
100
AcDbEntity
  8
0
100
AcDbVertex
100
AcDbPolygonMeshVertex
 10
0.44
 20
-0.5
 30
4.09
 70
    64
  0
VERTEX
  5
4C13A
100
AcDbEntity
  8
0
100
AcDbVertex
100
AcDbPolygonMeshVertex
 10
0.44
 20
-0.37
 30
4.09
 70
    64
  0
VERTEX
  5
4C13B
100
AcDbEntity
  8
0
100
AcDbVertex
100
AcDbPolygonMeshVertex
 10
0.62
 20
-0.5
 30
4.09
 70
    64
  0
VERTEX
  5
4C13C
100
AcDbEntity
  8
0
100
AcDbVertex
100
AcDbPolygonMeshVertex
 10
0.62
 20
-0.5
 30
4.09
 70
    64
  0
VERTEX
  5
4C13D
100
AcDbEntity
  8
0
100
AcDbVertex
100
AcDbPolygonMeshVertex
 10
0.62
 20
-0.37
 30
4.09
 70
    64
  0
SEQEND
  5
4C13E
100
AcDbEntity
  8
0
  0
POLYLINE
  5
4C13F
100
AcDbEntity
  8
0
100
AcDbPolygonMesh
 66
     1
 10
0.0
 20
0.0
 30
0.0
 70
    16
 71
     6
 72
     3
  0
VERTEX
  5
4C140
100
AcDbEntity
  8
0
100
AcDbVertex
100
AcDbPolygonMeshVertex
 10
-0.62
 20
-0.37
 30
4.47
 70
    64
  0
VERTEX
  5
4C141
100
AcDbEntity
  8
0
100
AcDbVertex
100
AcDbPolygonMeshVertex
 10
-0.62
 20
-0.37
 30
4.09
 70
    64
  0
VERTEX
  5
4C142
100
AcDbEntity
  8
0
100
AcDbVertex
100
AcDbPolygonMeshVertex
 10
-0.62
 20
-0.37
 30
4.09
 70
    64
  0
VERTEX
  5
4C143
100
AcDbEntity
  8
0
100
AcDbVertex
100
AcDbPolygonMeshVertex
 10
-0.44
 20
-0.37
 30
4.47
 70
    64
  0
VERTEX
  5
4C144
100
AcDbEntity
  8
0
100
AcDbVertex
100
AcDbPolygonMeshVertex
 10
-0.44
 20
-0.37
 30
4.09
 70
    64
  0
VERTEX
  5
4C145
100
AcDbEntity
  8
0
100
AcDbVertex
100
AcDbPolygonMeshVertex
 10
-0.44
 20
-0.37
 30
4.09
 70
    64
  0
VERTEX
  5
4C146
100
AcDbEntity
  8
0
100
AcDbVertex
100
AcDbPolygonMeshVertex
 10
-0.44
 20
-1.18
 30
4.47
 70
    64
  0
VERTEX
  5
4C147
100
AcDbEntity
  8
0
100
AcDbVertex
100
AcDbPolygonMeshVertex
 10
-0.44
 20
-1.18
 30
4.09
 70
    64
  0
VERTEX
  5
4C148
100
AcDbEntity
  8
0
100
AcDbVertex
100
AcDbPolygonMeshVertex
 10
-0.44
 20
-0.37
 30
4.09
 70
    64
  0
VERTEX
  5
4C149
100
AcDbEntity
  8
0
100
AcDbVertex
100
AcDbPolygonMeshVertex
 10
-0.62
 20
-1.18
 30
4.47
 70
    64
  0
VERTEX
  5
4C14A
100
AcDbEntity
  8
0
100
AcDbVertex
100
AcDbPolygonMeshVertex
 10
-0.62
 20
-1.18
 30
4.09
 70
    64
  0
VERTEX
  5
4C14B
100
AcDbEntity
  8
0
100
AcDbVertex
100
AcDbPolygonMeshVertex
 10
-0.62
 20
-0.37
 30
4.09
 70
    64
  0
VERTEX
  5
4C14C
100
AcDbEntity
  8
0
100
AcDbVertex
100
AcDbPolygonMeshVertex
 10
-0.62
 20
-1.18
 30
4.47
 70
    64
  0
VERTEX
  5
4C14D
100
AcDbEntity
  8
0
100
AcDbVertex
100
AcDbPolygonMeshVertex
 10
-0.62
 20
-1.18
 30
4.47
 70
    64
  0
VERTEX
  5
4C14E
100
AcDbEntity
  8
0
100
AcDbVertex
100
AcDbPolygonMeshVertex
 10
-0.62
 20
-0.37
 30
4.47
 70
    64
  0
VERTEX
  5
4C14F
100
AcDbEntity
  8
0
100
AcDbVertex
100
AcDbPolygonMeshVertex
 10
-0.44
 20
-1.18
 30
4.47
 70
    64
  0
VERTEX
  5
4C150
100
AcDbEntity
  8
0
100
AcDbVertex
100
AcDbPolygonMeshVertex
 10
-0.44
 20
-1.18
 30
4.47
 70
    64
  0
VERTEX
  5
4C151
100
AcDbEntity
  8
0
100
AcDbVertex
100
AcDbPolygonMeshVertex
 10
-0.44
 20
-0.37
 30
4.47
 70
    64
  0
SEQEND
  5
4C152
100
AcDbEntity
  8
0
  0
POLYLINE
  5
4C153
100
AcDbEntity
  8
0
100
AcDbPolygonMesh
 66
     1
 10
0.0
 20
0.0
 30
0.0
 70
    16
 71
     6
 72
     3
  0
VERTEX
  5
4C154
100
AcDbEntity
  8
0
100
AcDbVertex
100
AcDbPolygonMeshVertex
 10
-0.62
 20
-0.37
 30
4.09
 70
    64
  0
VERTEX
  5
4C155
100
AcDbEntity
  8
0
100
AcDbVertex
100
AcDbPolygonMeshVertex
 10
-0.62
 20
-0.37
 30
2.97
 70
    64
  0
VERTEX
  5
4C156
100
AcDbEntity
  8
0
100
AcDbVertex
100
AcDbPolygonMeshVertex
 10
-0.62
 20
-0.37
 30
2.97
 70
    64
  0
VERTEX
  5
4C157
100
AcDbEntity
  8
0
100
AcDbVertex
100
AcDbPolygonMeshVertex
 10
-0.44
 20
-0.37
 30
4.09
 70
    64
  0
VERTEX
  5
4C158
100
AcDbEntity
  8
0
100
AcDbVertex
100
AcDbPolygonMeshVertex
 10
-0.44
 20
-0.37
 30
2.97
 70
    64
  0
VERTEX
  5
4C159
100
AcDbEntity
  8
0
100
AcDbVertex
100
AcDbPolygonMeshVertex
 10
-0.44
 20
-0.37
 30
2.97
 70
    64
  0
VERTEX
  5
4C15A
100
AcDbEntity
  8
0
100
AcDbVertex
100
AcDbPolygonMeshVertex
 10
-0.44
 20
-0.5
 30
4.09
 70
    64
  0
VERTEX
  5
4C15B
100
AcDbEntity
  8
0
100
AcDbVertex
100
AcDbPolygonMeshVertex
 10
-0.44
 20
-0.5
 30
2.97
 70
    64
  0
VERTEX
  5
4C15C
100
AcDbEntity
  8
0
100
AcDbVertex
100
AcDbPolygonMeshVertex
 10
-0.44
 20
-0.37
 30
2.97
 70
    64
  0
VERTEX
  5
4C15D
100
AcDbEntity
  8
0
100
AcDbVertex
100
AcDbPolygonMeshVertex
 10
-0.62
 20
-0.5
 30
4.09
 70
    64
  0
VERTEX
  5
4C15E
100
AcDbEntity
  8
0
100
AcDbVertex
100
AcDbPolygonMeshVertex
 10
-0.62
 20
-0.5
 30
2.97
 70
    64
  0
VERTEX
  5
4C15F
100
AcDbEntity
  8
0
100
AcDbVertex
100
AcDbPolygonMeshVertex
 10
-0.62
 20
-0.37
 30
2.97
 70
    64
  0
VERTEX
  5
4C160
100
AcDbEntity
  8
0
100
AcDbVertex
100
AcDbPolygonMeshVertex
 10
-0.62
 20
-0.5
 30
4.09
 70
    64
  0
VERTEX
  5
4C161
100
AcDbEntity
  8
0
100
AcDbVertex
100
AcDbPolygonMeshVertex
 10
-0.62
 20
-0.5
 30
4.09
 70
    64
  0
VERTEX
  5
4C162
100
AcDbEntity
  8
0
100
AcDbVertex
100
AcDbPolygonMeshVertex
 10
-0.62
 20
-0.37
 30
4.09
 70
    64
  0
VERTEX
  5
4C163
100
AcDbEntity
  8
0
100
AcDbVertex
100
AcDbPolygonMeshVertex
 10
-0.44
 20
-0.5
 30
4.09
 70
    64
  0
VERTEX
  5
4C164
100
AcDbEntity
  8
0
100
AcDbVertex
100
AcDbPolygonMeshVertex
 10
-0.44
 20
-0.5
 30
4.09
 70
    64
  0
VERTEX
  5
4C165
100
AcDbEntity
  8
0
100
AcDbVertex
100
AcDbPolygonMeshVertex
 10
-0.44
 20
-0.37
 30
4.09
 70
    64
  0
SEQEND
  5
4C166
100
AcDbEntity
  8
0
  0
POLYLINE
  5
4C167
100
AcDbEntity
  8
0
100
AcDbPolygonMesh
 66
     1
 10
0.0
 20
0.0
 30
0.0
 70
    16
 71
     6
 72
     3
  0
VERTEX
  5
4C168
100
AcDbEntity
  8
0
100
AcDbVertex
100
AcDbPolygonMeshVertex
 10
0.81
 20
-0.59
 30
4.28
 70
    64
  0
VERTEX
  5
4C169
100
AcDbEntity
  8
0
100
AcDbVertex
100
AcDbPolygonMeshVertex
 10
0.81
 20
-0.59
 30
4.09
 70
    64
  0
VERTEX
  5
4C16A
100
AcDbEntity
  8
0
100
AcDbVertex
100
AcDbPolygonMeshVertex
 10
0.81
 20
-0.59
 30
4.09
 70
    64
  0
VERTEX
  5
4C16B
100
AcDbEntity
  8
0
100
AcDbVertex
100
AcDbPolygonMeshVertex
 10
1.31
 20
-0.59
 30
4.28
 70
    64
  0
VERTEX
  5
4C16C
100
AcDbEntity
  8
0
100
AcDbVertex
100
AcDbPolygonMeshVertex
 10
1.31
 20
-0.59
 30
4.09
 70
    64
  0
VERTEX
  5
4C16D
100
AcDbEntity
  8
0
100
AcDbVertex
100
AcDbPolygonMeshVertex
 10
1.31
 20
-0.59
 30
4.09
 70
    64
  0
VERTEX
  5
4C16E
100
AcDbEntity
  8
0
100
AcDbVertex
100
AcDbPolygonMeshVertex
 10
1.31
 20
-1.0
 30
4.28
 70
    64
  0
VERTEX
  5
4C16F
100
AcDbEntity
  8
0
100
AcDbVertex
100
AcDbPolygonMeshVertex
 10
1.31
 20
-1.0
 30
4.09
 70
    64
  0
VERTEX
  5
4C170
100
AcDbEntity
  8
0
100
AcDbVertex
100
AcDbPolygonMeshVertex
 10
1.31
 20
-0.59
 30
4.09
 70
    64
  0
VERTEX
  5
4C171
100
AcDbEntity
  8
0
100
AcDbVertex
100
AcDbPolygonMeshVertex
 10
0.81
 20
-1.0
 30
4.28
 70
    64
  0
VERTEX
  5
4C172
100
AcDbEntity
  8
0
100
AcDbVertex
100
AcDbPolygonMeshVertex
 10
0.81
 20
-1.0
 30
4.09
 70
    64
  0
VERTEX
  5
4C173
100
AcDbEntity
  8
0
100
AcDbVertex
100
AcDbPolygonMeshVertex
 10
0.81
 20
-0.59
 30
4.09
 70
    64
  0
VERTEX
  5
4C174
100
AcDbEntity
  8
0
100
AcDbVertex
100
AcDbPolygonMeshVertex
 10
0.81
 20
-1.0
 30
4.28
 70
    64
  0
VERTEX
  5
4C175
100
AcDbEntity
  8
0
100
AcDbVertex
100
AcDbPolygonMeshVertex
 10
0.81
 20
-1.0
 30
4.28
 70
    64
  0
VERTEX
  5
4C176
100
AcDbEntity
  8
0
100
AcDbVertex
100
AcDbPolygonMeshVertex
 10
0.81
 20
-0.59
 30
4.28
 70
    64
  0
VERTEX
  5
4C177
100
AcDbEntity
  8
0
100
AcDbVertex
100
AcDbPolygonMeshVertex
 10
1.31
 20
-1.0
 30
4.28
 70
    64
  0
VERTEX
  5
4C178
100
AcDbEntity
  8
0
100
AcDbVertex
100
AcDbPolygonMeshVertex
 10
1.31
 20
-1.0
 30
4.28
 70
    64
  0
VERTEX
  5
4C179
100
AcDbEntity
  8
0
100
AcDbVertex
100
AcDbPolygonMeshVertex
 10
1.31
 20
-0.59
 30
4.28
 70
    64
  0
SEQEND
  5
4C17A
100
AcDbEntity
  8
0
  0
CIRCLE
  5
4C17B
100
AcDbEntity
  8
0
100
AcDbCircle
 10
0.0
 20
-0.795
 30
4.28
 40
0.19
  0
POLYLINE
  5
4C17C
100
AcDbEntity
  8
0
100
AcDbPolygonMesh
 66
     1
 10
0.0
 20
0.0
 30
0.0
 70
    16
 71
     6
 72
     3
  0
VERTEX
  5
4C17D
100
AcDbEntity
  8
0
100
AcDbVertex
100
AcDbPolygonMeshVertex
 10
-0.25
 20
-0.59
 30
4.28
 70
    64
  0
VERTEX
  5
4C17E
100
AcDbEntity
  8
0
100
AcDbVertex
100
AcDbPolygonMeshVertex
 10
-0.25
 20
-0.59
 30
4.09
 70
    64
  0
VERTEX
  5
4C17F
100
AcDbEntity
  8
0
100
AcDbVertex
100
AcDbPolygonMeshVertex
 10
-0.25
 20
-0.59
 30
4.09
 70
    64
  0
VERTEX
  5
4C180
100
AcDbEntity
  8
0
100
AcDbVertex
100
AcDbPolygonMeshVertex
 10
0.25
 20
-0.59
 30
4.28
 70
    64
  0
VERTEX
  5
4C181
100
AcDbEntity
  8
0
100
AcDbVertex
100
AcDbPolygonMeshVertex
 10
0.25
 20
-0.59
 30
4.09
 70
    64
  0
VERTEX
  5
4C182
100
AcDbEntity
  8
0
100
AcDbVertex
100
AcDbPolygonMeshVertex
 10
0.25
 20
-0.59
 30
4.09
 70
    64
  0
VERTEX
  5
4C183
100
AcDbEntity
  8
0
100
AcDbVertex
100
AcDbPolygonMeshVertex
 10
0.25
 20
-1.0
 30
4.28
 70
    64
  0
VERTEX
  5
4C184
100
AcDbEntity
  8
0
100
AcDbVertex
100
AcDbPolygonMeshVertex
 10
0.25
 20
-1.0
 30
4.09
 70
    64
  0
VERTEX
  5
4C185
100
AcDbEntity
  8
0
100
AcDbVertex
100
AcDbPolygonMeshVertex
 10
0.25
 20
-0.59
 30
4.09
 70
    64
  0
VERTEX
  5
4C186
100
AcDbEntity
  8
0
100
AcDbVertex
100
AcDbPolygonMeshVertex
 10
-0.25
 20
-1.0
 30
4.28
 70
    64
  0
VERTEX
  5
4C187
100
AcDbEntity
  8
0
100
AcDbVertex
100
AcDbPolygonMeshVertex
 10
-0.25
 20
-1.0
 30
4.09
 70
    64
  0
VERTEX
  5
4C188
100
AcDbEntity
  8
0
100
AcDbVertex
100
AcDbPolygonMeshVertex
 10
-0.25
 20
-0.59
 30
4.09
 70
    64
  0
VERTEX
  5
4C189
100
AcDbEntity
  8
0
100
AcDbVertex
100
AcDbPolygonMeshVertex
 10
-0.25
 20
-1.0
 30
4.28
 70
    64
  0
VERTEX
  5
4C18A
100
AcDbEntity
  8
0
100
AcDbVertex
100
AcDbPolygonMeshVertex
 10
-0.25
 20
-1.0
 30
4.28
 70
    64
  0
VERTEX
  5
4C18B
100
AcDbEntity
  8
0
100
AcDbVertex
100
AcDbPolygonMeshVertex
 10
-0.25
 20
-0.59
 30
4.28
 70
    64
  0
VERTEX
  5
4C18C
100
AcDbEntity
  8
0
100
AcDbVertex
100
AcDbPolygonMeshVertex
 10
0.25
 20
-1.0
 30
4.28
 70
    64
  0
VERTEX
  5
4C18D
100
AcDbEntity
  8
0
100
AcDbVertex
100
AcDbPolygonMeshVertex
 10
0.25
 20
-1.0
 30
4.28
 70
    64
  0
VERTEX
  5
4C18E
100
AcDbEntity
  8
0
100
AcDbVertex
100
AcDbPolygonMeshVertex
 10
0.25
 20
-0.59
 30
4.28
 70
    64
  0
SEQEND
  5
4C18F
100
AcDbEntity
  8
0
  0
CIRCLE
  5
4C190
100
AcDbEntity
  8
0
100
AcDbCircle
 10
-1.06
 20
-0.795
 30
4.28
 40
0.19
  0
POLYLINE
  5
4C191
100
AcDbEntity
  8
0
100
AcDbPolygonMesh
 66
     1
 10
0.0
 20
0.0
 30
0.0
 70
    16
 71
     6
 72
     3
  0
VERTEX
  5
4C192
100
AcDbEntity
  8
0
100
AcDbVertex
100
AcDbPolygonMeshVertex
 10
-1.31
 20
-0.59
 30
4.28
 70
    64
  0
VERTEX
  5
4C193
100
AcDbEntity
  8
0
100
AcDbVertex
100
AcDbPolygonMeshVertex
 10
-1.31
 20
-0.59
 30
4.09
 70
    64
  0
VERTEX
  5
4C194
100
AcDbEntity
  8
0
100
AcDbVertex
100
AcDbPolygonMeshVertex
 10
-1.31
 20
-0.59
 30
4.09
 70
    64
  0
VERTEX
  5
4C195
100
AcDbEntity
  8
0
100
AcDbVertex
100
AcDbPolygonMeshVertex
 10
-0.81
 20
-0.59
 30
4.28
 70
    64
  0
VERTEX
  5
4C196
100
AcDbEntity
  8
0
100
AcDbVertex
100
AcDbPolygonMeshVertex
 10
-0.81
 20
-0.59
 30
4.09
 70
    64
  0
VERTEX
  5
4C197
100
AcDbEntity
  8
0
100
AcDbVertex
100
AcDbPolygonMeshVertex
 10
-0.81
 20
-0.59
 30
4.09
 70
    64
  0
VERTEX
  5
4C198
100
AcDbEntity
  8
0
100
AcDbVertex
100
AcDbPolygonMeshVertex
 10
-0.81
 20
-1.0
 30
4.28
 70
    64
  0
VERTEX
  5
4C199
100
AcDbEntity
  8
0
100
AcDbVertex
100
AcDbPolygonMeshVertex
 10
-0.81
 20
-1.0
 30
4.09
 70
    64
  0
VERTEX
  5
4C19A
100
AcDbEntity
  8
0
100
AcDbVertex
100
AcDbPolygonMeshVertex
 10
-0.81
 20
-0.59
 30
4.09
 70
    64
  0
VERTEX
  5
4C19B
100
AcDbEntity
  8
0
100
AcDbVertex
100
AcDbPolygonMeshVertex
 10
-1.31
 20
-1.0
 30
4.28
 70
    64
  0
VERTEX
  5
4C19C
100
AcDbEntity
  8
0
100
AcDbVertex
100
AcDbPolygonMeshVertex
 10
-1.31
 20
-1.0
 30
4.09
 70
    64
  0
VERTEX
  5
4C19D
100
AcDbEntity
  8
0
100
AcDbVertex
100
AcDbPolygonMeshVertex
 10
-1.31
 20
-0.59
 30
4.09
 70
    64
  0
VERTEX
  5
4C19E
100
AcDbEntity
  8
0
100
AcDbVertex
100
AcDbPolygonMeshVertex
 10
-1.31
 20
-1.0
 30
4.28
 70
    64
  0
VERTEX
  5
4C19F
100
AcDbEntity
  8
0
100
AcDbVertex
100
AcDbPolygonMeshVertex
 10
-1.31
 20
-1.0
 30
4.28
 70
    64
  0
VERTEX
  5
4C1A0
100
AcDbEntity
  8
0
100
AcDbVertex
100
AcDbPolygonMeshVertex
 10
-1.31
 20
-0.59
 30
4.28
 70
    64
  0
VERTEX
  5
4C1A1
100
AcDbEntity
  8
0
100
AcDbVertex
100
AcDbPolygonMeshVertex
 10
-0.81
 20
-1.0
 30
4.28
 70
    64
  0
VERTEX
  5
4C1A2
100
AcDbEntity
  8
0
100
AcDbVertex
100
AcDbPolygonMeshVertex
 10
-0.81
 20
-1.0
 30
4.28
 70
    64
  0
VERTEX
  5
4C1A3
100
AcDbEntity
  8
0
100
AcDbVertex
100
AcDbPolygonMeshVertex
 10
-0.81
 20
-0.59
 30
4.28
 70
    64
  0
SEQEND
  5
4C1A4
100
AcDbEntity
  8
0
  0
LINE
  5
4C1A5
100
AcDbEntity
  8
0
100
AcDbLine
 10
1.78
 20
-0.34
 30
0.19
 11
-1.78
 21
-0.34
 31
0.19
  0
POLYLINE
  5
4C1A6
100
AcDbEntity
  8
0
100
AcDbPolygonMesh
 66
     1
 10
0.0
 20
0.0
 30
0.0
 70
    16
 71
     6
 72
     3
  0
VERTEX
  5
4C1A7
100
AcDbEntity
  8
0
100
AcDbVertex
100
AcDbPolygonMeshVertex
 10
1.78
 20
-5.72
 30
0.19
 70
    64
  0
VERTEX
  5
4C1A8
100
AcDbEntity
  8
0
100
AcDbVertex
100
AcDbPolygonMeshVertex
 10
1.78
 20
-5.72
 30
0.0
 70
    64
  0
VERTEX
  5
4C1A9
100
AcDbEntity
  8
0
100
AcDbVertex
100
AcDbPolygonMeshVertex
 10
1.78
 20
-5.72
 30
0.0
 70
    64
  0
VERTEX
  5
4C1AA
100
AcDbEntity
  8
0
100
AcDbVertex
100
AcDbPolygonMeshVertex
 10
-1.78
 20
-5.72
 30
0.19
 70
    64
  0
VERTEX
  5
4C1AB
100
AcDbEntity
  8
0
100
AcDbVertex
100
AcDbPolygonMeshVertex
 10
-1.78
 20
-5.72
 30
0.0
 70
    64
  0
VERTEX
  5
4C1AC
100
AcDbEntity
  8
0
100
AcDbVertex
100
AcDbPolygonMeshVertex
 10
-1.78
 20
-5.72
 30
0.0
 70
    64
  0
VERTEX
  5
4C1AD
100
AcDbEntity
  8
0
100
AcDbVertex
100
AcDbPolygonMeshVertex
 10
-1.78
 20
-0.34
 30
0.19
 70
    64
  0
VERTEX
  5
4C1AE
100
AcDbEntity
  8
0
100
AcDbVertex
100
AcDbPolygonMeshVertex
 10
-1.78
 20
-0.34
 30
0.0
 70
    64
  0
VERTEX
  5
4C1AF
100
AcDbEntity
  8
0
100
AcDbVertex
100
AcDbPolygonMeshVertex
 10
-1.78
 20
-5.72
 30
0.0
 70
    64
  0
VERTEX
  5
4C1B0
100
AcDbEntity
  8
0
100
AcDbVertex
100
AcDbPolygonMeshVertex
 10
1.78
 20
-0.34
 30
0.19
 70
    64
  0
VERTEX
  5
4C1B1
100
AcDbEntity
  8
0
100
AcDbVertex
100
AcDbPolygonMeshVertex
 10
1.78
 20
-0.34
 30
0.0
 70
    64
  0
VERTEX
  5
4C1B2
100
AcDbEntity
  8
0
100
AcDbVertex
100
AcDbPolygonMeshVertex
 10
1.78
 20
-5.72
 30
0.0
 70
    64
  0
VERTEX
  5
4C1B3
100
AcDbEntity
  8
0
100
AcDbVertex
100
AcDbPolygonMeshVertex
 10
1.78
 20
-0.34
 30
0.19
 70
    64
  0
VERTEX
  5
4C1B4
100
AcDbEntity
  8
0
100
AcDbVertex
100
AcDbPolygonMeshVertex
 10
1.78
 20
-0.34
 30
0.19
 70
    64
  0
VERTEX
  5
4C1B5
100
AcDbEntity
  8
0
100
AcDbVertex
100
AcDbPolygonMeshVertex
 10
1.78
 20
-5.72
 30
0.19
 70
    64
  0
VERTEX
  5
4C1B6
100
AcDbEntity
  8
0
100
AcDbVertex
100
AcDbPolygonMeshVertex
 10
-1.78
 20
-0.34
 30
0.19
 70
    64
  0
VERTEX
  5
4C1B7
100
AcDbEntity
  8
0
100
AcDbVertex
100
AcDbPolygonMeshVertex
 10
-1.78
 20
-0.34
 30
0.19
 70
    64
  0
VERTEX
  5
4C1B8
100
AcDbEntity
  8
0
100
AcDbVertex
100
AcDbPolygonMeshVertex
 10
-1.78
 20
-5.72
 30
0.19
 70
    64
  0
SEQEND
  5
4C1B9
100
AcDbEntity
  8
0
  0
3DFACE
  5
4C1BA
100
AcDbEntity
  8
0
100
AcDbFace
 10
-1.78
 20
-0.34
 30
0.19
 11
-0.87
 21
0.0
 31
0.19
 12
-0.97
 22
0.28
 32
0.19
 13
-1.16
 23
0.28
 33
0.19
 70
    15
  0
3DFACE
  5
4C1BB
100
AcDbEntity
  8
0
100
AcDbFace
 10
-1.78
 20
-0.34
 30
0.19
 11
1.78
 21
-0.34
 31
0.19
 12
-0.38
 22
0.0
 32
0.19
 13
-0.87
 23
0.0
 33
0.19
 70
    15
  0
3DFACE
  5
4C1BC
100
AcDbEntity
  8
0
100
AcDbFace
 10
-0.38
 20
0.0
 30
0.19
 11
1.78
 21
-0.34
 31
0.19
 12
1.16
 22
0.28
 32
0.19
 13
-0.28
 23
0.28
 33
0.19
 70
    15
  0
3DFACE
  5
4C1BD
100
AcDbEntity
  8
0
100
AcDbFace
 10
-0.38
 20
0.0
 30
0.0
 11
1.78
 21
-0.34
 31
0.0
 12
1.16
 22
0.28
 32
0.0
 13
-0.28
 23
0.28
 33
0.0
 70
    15
  0
3DFACE
  5
4C1BE
100
AcDbEntity
  8
0
100
AcDbFace
 10
-1.78
 20
-0.34
 30
0.0
 11
1.78
 21
-0.34
 31
0.0
 12
-0.38
 22
0.0
 32
0.0
 13
-0.87
 23
0.0
 33
0.0
 70
    15
  0
3DFACE
  5
4C1BF
100
AcDbEntity
  8
0
100
AcDbFace
 10
-1.78
 20
-0.34
 30
0.0
 11
-0.87
 21
0.0
 31
0.0
 12
-0.97
 22
0.28
 32
0.0
 13
-1.16
 23
0.28
 33
0.0
 70
    15
  0
3DFACE
  5
4C1C0
100
AcDbEntity
  8
0
100
AcDbFace
 10
-1.16
 20
0.28
 30
0.0
 11
-1.16
 21
0.28
 31
0.19
 12
-1.78
 22
-0.34
 32
0.19
 13
-1.78
 23
-0.34
 33
0.0
  0
3DFACE
  5
4C1C1
100
AcDbEntity
  8
0
100
AcDbFace
 10
1.78
 20
-0.34
 30
0.0
 11
1.78
 21
-0.34
 31
0.19
 12
1.16
 22
0.28
 32
0.19
 13
1.16
 23
0.28
 33
0.0
  0
3DFACE
  5
4C1C2
100
AcDbEntity
  8
0
100
AcDbFace
 10
1.16
 20
0.28
 30
0.0
 11
1.16
 21
0.28
 31
0.19
 12
-0.28
 22
0.28
 32
0.19
 13
-0.28
 23
0.28
 33
0.0
  0
TEXT
  5
4C1C3
100
AcDbEntity
  8
0
100
AcDbText
 10
-1.130004
 20
-0.862017
 30
4.28
 40
0.12
  1
L1
100
AcDbText
  0
TEXT
  5
4C1C4
100
AcDbEntity
  8
0
100
AcDbText
 10
-0.081589
 20
-0.867272
 30
4.28
 40
0.12
  1
L2
100
AcDbText
  0
TEXT
  5
4C1C5
100
AcDbEntity
  8
0
100
AcDbText
 10
0.976103
 20
-0.844707
 30
4.28
 40
0.12
  1
L3
100
AcDbText
  0
TEXT
  5
4C1C6
100
AcDbEntity
  8
0
100
AcDbText
 10
-1.125388
 20
-5.089235
 30
1.81
 40
0.12
  1
T1
100
AcDbText
  0
TEXT
  5
4C1C7
100
AcDbEntity
  8
0
100
AcDbText
 10
-0.086252
 20
-5.085217
 30
1.81
 40
0.12
  1
T2
100
AcDbText
  0
TEXT
  5
4C1C8
100
AcDbEntity
  8
0
100
AcDbText
 10
0.962162
 20
-5.081198
 30
1.81
 40
0.12
  1
T3
100
AcDbText
  0
ATTDEF
  5
4C1C9
100
AcDbEntity
  8
ATTRIBUTES
100
AcDbText
 10
-1.598153
 20
-2.711108
 30
0.0
 40
0.12
  1
ALLEN-BRADLEY
100
AcDbAttributeDefinition
  3
MANUFACTURER NAME?
  2
AC_VND_LABEL
 70
     1
  0
ATTDEF
  5
4C1CA
100
AcDbEntity
  8
ATTRIBUTES
100
AcDbText
 10
-1.598153
 20
-2.961108
 30
0.0
 40
0.12
  1
500FL-A
100
AcDbAttributeDefinition
  3
CATALOG NUMBER?
  2
AC_PART_NO
 70
     1
  0
ATTDEF
  5
4C1CB
100
AcDbEntity
  8
ATTRIBUTES
100
AcDbText
 10
-1.598153
 20
-3.211108
 30
0.0
 40
0.12
  1
NEMA AC NON-MOTOR LOADS FEED-THROUGH WIRING CONTACTOR; SIZE 0 & 1; 2-3P
100
AcDbAttributeDefinition
  3
PART DESCRIPTION?
  2
AC_DESCRIPTION
 70
     1
  0
ATTDEF
  5
4C1CC
100
AcDbEntity
  8
ATTRIBUTES
100
AcDbText
 10
-1.598153
 20
-3.461108
 30
0.0
 40
0.12
  1

100
AcDbAttributeDefinition
  3
DEVICE ID?
  2
DEVICE_ID
 70
     1
  0
ATTDEF
  5
4C1CD
100
AcDbEntity
  8
ATTRIBUTES
100
AcDbText
 10
-1.598153
 20
-3.711108
 30
0.0
 40
0.12
  1

100
AcDbAttributeDefinition
  3
CUSTOMER PART NUMBER?
  2
AC_CPART_NO
 70
     1
  0
ATTDEF
  5
4C1CE
100
AcDbEntity
  8
ATTRIBUTES
100
AcDbText
 10
-1.598153
 20
-3.961108
 30
0.0
 40
0.12
  1

100
AcDbAttributeDefinition
  3
CUSTOMER NOTE?
  2
AC_NOTE
 70
     1
  0
ATTDEF
  5
4C1CF
100
AcDbEntity
  8
ATTRIBUTES
100
AcDbText
 10
-1.598153
 20
-4.211108
 30
0.0
 40
0.12
  1

100
AcDbAttributeDefinition
  3
FASTENER DATA?
  2
FASTENER
 70
     1
  0
ATTDEF
  5
4C1D0
100
AcDbEntity
  8
ATTRIBUTES
100
AcDbText
 10
-1.598153
 20
-4.461108
 30
0.0
 40
0.12
  1
INCH
100
AcDbAttributeDefinition
  3
UNIT OF SCALE?
  2
AC_SCALE_UNIT
 70
     1
  0
ATTDEF
  5
4C1D1
100
AcDbEntity
  8
ATTRIBUTES
100
AcDbText
 10
-1.598153
 20
-4.711108
 30
0.0
 40
0.12
  1
0
100
AcDbAttributeDefinition
  3
VIEW CODE?
  2
AC_VIEW_CODE
 70
     1
  0
POINT
  5
4C1D2
100
AcDbEntity
  8
DIMS-MTG-HOLES
100
AcDbPoint
 10
0.0
 20
0.0
 30
0.0
  0
POINT
  5
4C1D3
100
AcDbEntity
  8
DIMS-MTG-HOLES
100
AcDbPoint
 10
0.38
 20
0.0
 30
0.0
  0
POINT
  5
4C1D4
100
AcDbEntity
  8
DIMS-MTG-HOLES
100
AcDbPoint
 10
-1.375
 20
-5.5
 30
0.0
  0
POINT
  5
4C1D5
100
AcDbEntity
  8
DIMS-MTG-HOLES
100
AcDbPoint
 10
1.375
 20
-5.5
 30
0.0
  0
LWPOLYLINE
  5
4C1E5
100
AcDbEntity
  8
SCALE
100
AcDbPolyline
 90
        4
 70
     1
 43
0.0
 10
-0.561483
 20
-5.972287
 10
0.574146
 20
-5.972287
 10
0.574146
 20
-6.813897
 10
-0.561483
 20
-6.813897
  0
LINE
  5
4C1E6
100
AcDbEntity
  8
SCALE
100
AcDbLine
 10
-0.503484
 20
-6.352366
 30
0.0
 11
0.496516
 21
-6.352366
 31
0.0
  0
LINE
  5
4C1E7
100
AcDbEntity
  8
SCALE
100
AcDbLine
 10
-0.503484
 20
-6.652366
 30
0.0
 11
-0.109784
 21
-6.652366
 31
0.0
  0
LINE
  5
4C1E8
100
AcDbEntity
  8
SCALE
100
AcDbLine
 10
-0.503484
 20
-6.452366
 30
0.0
 11
-0.503484
 21
-6.252366
 31
0.0
  0
TEXT
  5
4C1E9
100
AcDbEntity
  8
SCALE
100
AcDbText
 10
-0.447508
 20
-6.604681
 30
0.0
 40
0.0625
  1
[10mm]
100
AcDbText
  0
LINE
  5
4C1EA
100
AcDbEntity
  8
SCALE
100
AcDbLine
 10
-0.503484
 20
-6.752366
 30
0.0
 11
-0.503484
 21
-6.552366
 31
0.0
  0
TEXT
  5
4C1EB
100
AcDbEntity
  8
SCALE
100
AcDbText
 10
-0.501954
 20
-6.077489
 30
0.0
 40
0.0625
  1
SCALE:
100
AcDbText
  0
LINE
  5
4C1EC
100
AcDbEntity
  8
SCALE
100
AcDbLine
 10
-0.109784
 20
-6.752366
 30
0.0
 11
-0.109784
 21
-6.552366
 31
0.0
  0
TEXT
  5
4C1ED
100
AcDbEntity
  8
SCALE
100
AcDbText
 10
-0.140201
 20
-6.283317
 30
0.0
 40
0.0625
  1
1 Inch
100
AcDbText
  0
LINE
  5
4C1EE
100
AcDbEntity
  8
SCALE
100
AcDbLine
 10
0.496516
 20
-6.352366
 30
0.0
 11
0.496516
 21
-6.452366
 31
0.0
  0
LINE
  5
4C1EF
100
AcDbEntity
  8
SCALE
100
AcDbLine
 10
0.496516
 20
-6.452366
 30
0.0
 11
0.496516
 21
-6.252366
 31
0.0
  0
DIMENSION
  5
4C1F0
100
AcDbEntity
  8
AREA1
100
AcDbDimension
  2
*D0
 10
-3.234247
 20
-5.72
 30
0.0
 11
-3.234247
 21
-2.805267
 31
0.0
 70
   160
  3
ABECAD_3D
100
AcDbAlignedDimension
 13
-1.16
 23
0.28
 33
0.0
 14
-1.78
 24
-5.72
 34
0.0
 50
90.0
100
AcDbRotatedDimension
  0
DIMENSION
  5
4C1FE
100
AcDbEntity
  8
AREA1
100
AcDbDimension
  2
*D1
 10
1.78
 20
1.014686
 30
0.0
 11
0.059735
 21
1.014686
 31
0.0
 70
   160
  3
ABECAD_3D
100
AcDbAlignedDimension
 13
-1.78
 23
-0.34
 33
0.0
 14
1.78
 24
-0.34
 34
0.0
100
AcDbRotatedDimension
  0
ENDSEC
  0
SECTION
  2
OBJECTS
  0
DICTIONARY
  5
458CB
100
AcDbDictionary
  3
ACAD_GROUP
350
458CC
  3
ACAD_LAYOUT
350
458FB
  3
ACAD_MLINESTYLE
350
458D9
  3
ACAD_PLOTSETTINGS
350
458FC
  3
ACAD_PLOTSTYLENAME
350
458F9
  3
ACDBHEADERROUNDTRIPXREC
350
4C242
  3
ACDBVARIABLEDICTIONARY
350
458E1
  3
DWGPROPS
350
45901
  0
DICTIONARY
  5
4C240
100
AcDbDictionary
280
     1
  3
ACAD_XREC_ROUNDTRIP
360
4C241
  0
DICTIONARY
  5
4C269
100
AcDbDictionary
280
     1
  3
ACAD_XREC_ROUNDTRIP
360
4C26A
  0
DICTIONARY
  5
4C23E
100
AcDbDictionary
280
     1
  3
ACAD_XREC_ROUNDTRIP
360
4C23F
  0
DICTIONARY
  5
4C265
100
AcDbDictionary
280
     1
  3
ACAD_XREC_ROUNDTRIP
360
4C266
  0
DICTIONARY
  5
4592C
100
AcDbDictionary
280
     1
  3
ACAD_LAYOUTSELFREF
360
4C264
  0
DICTIONARY
  5
4592A
100
AcDbDictionary
280
     1
  3
ACAD_LAYOUTSELFREF
360
4C263
  0
DICTIONARY
  5
458CC
102
{ACAD_REACTORS
330
458CB
102
}
100
AcDbDictionary
  0
DICTIONARY
  5
458FB
102
{ACAD_XDICTIONARY
360
4C267
102
}
102
{ACAD_REACTORS
330
458CB
102
}
100
AcDbDictionary
  3
LAYOUT1
350
458FE
  3
MODEL
350
458FD
  0
DICTIONARY
  5
458D9
102
{ACAD_REACTORS
330
458CB
102
}
100
AcDbDictionary
  3
STANDARD
350
458DA
  0
DICTIONARY
  5
458FC
102
{ACAD_REACTORS
330
458CB
102
}
100
AcDbDictionary
  0
ACAD_PROXY_OBJECT
  5
458F9
102
{ACAD_REACTORS
330
458CB
102
}
100
AcDbProxyObject
 90
      499
 91
      501
 93
       86
310
405010041939BDC9B585B1
350
458FA
340
458FA
 94
        0
  0
DICTIONARY
  5
4C242
102
{ACAD_REACTORS
330
458CB
102
}
100
AcDbDictionary
  3
CEPSNTYPE
350
4C24C
  3
DIMSTYLEDATA
350
4C250
  3
FINGERPRINTGUID
350
4C24D
  3
HYPERLINKBASE
350
4C245
  3
INSUNITS
350
4C24B
  3
LAYOUTDICT
350
4C247
  3
LWETCUNION
350
4C24A
  3
PLOTSETDICT
350
4C248
  3
PLOTSTYLNAMDICT
350
4C249
  3
PSVPSCALE
350
4C24F
  3
PUCSBASE
350
4C253
  3
PUCSORGBACK
350
4C259
  3
PUCSORGBOTTOM
350
4C255
  3
PUCSORGFRONT
350
4C258
  3
PUCSORGLEFT
350
4C256
  3
PUCSORGRIGHT
350
4C257
  3
PUCSORGTOP
350
4C254
  3
PUCSORTHOREF
350
4C251
  3
PUCSORTHOVIEW
350
4C252
  3
STYLESHEET
350
4C246
  3
TSTACKALIGN
350
4C243
  3
TSTACKSIZE
350
4C244
  3
UCSBASE
350
4C25C
  3
UCSORGBACK
350
4C262
  3
UCSORGBOTTOM
350
4C25E
  3
UCSORGFRONT
350
4C261
  3
UCSORGLEFT
350
4C25F
  3
UCSORGRIGHT
350
4C260
  3
UCSORGTOP
350
4C25D
  3
UCSORTHOREF
350
4C25A
  3
UCSORTHOVIEW
350
4C25B
  3
VERSIONGUID
350
4C24E
  0
DICTIONARY
  5
458E1
102
{ACAD_REACTORS
330
458CB
102
}
100
AcDbDictionary
  3
DIMADEC
350
458E2
  0
XRECORD
  5
45901
102
{ACAD_REACTORS
330
458CB
102
}
100
AcDbXrecord
  1
DWGPROPS COOKIE
  2

  3

  4

  6

  7

  8
colin
  9

300
=
301
=
302
=
303
=
304
=
305
=
306
=
307
=
308
=
309
=
 40
0.000599
 41
2451670.444777
 42
2451670.445376
  1

 90
        0
  0
XRECORD
  5
4C241
102
{ACAD_REACTORS
330
4C240
102
}
100
AcDbXrecord
102
EXTNAMES
  1
*ACTIVE
  2
*Active
102
UCS
 74
     0
 71
     1
 10
0.0
 20
0.0
 30
0.0
 10
1.0
 20
0.0
 30
0.0
 10
0.0
 20
1.0
 30
0.0
146
0.0
 79
     1
102
VIEW
281
     1
  0
XRECORD
  5
4C26A
102
{ACAD_REACTORS
330
4C269
102
}
100
AcDbXrecord
102
PLOTBIT
280
     0
  0
XRECORD
  5
4C23F
102
{ACAD_REACTORS
330
4C23E
102
}
100
AcDbXrecord
102
EXTNAMES
  1
DEFPOINTS
  2
Defpoints
102
PLOTBIT
280
     0
  0
XRECORD
  5
4C266
102
{ACAD_REACTORS
330
4C265
102
}
100
AcDbXrecord
102
ACADR14ROUNDTRIP
1000
DSTYLE
1002
{
1070
   276
 70
     2
1070
   277
 70
     5
1070
   279
 70
     2
1002
}
  0
XRECORD
  5
4C264
102
{ACAD_REACTORS
330
4592C
102
}
100
AcDbXrecord
340
458D6
  0
XRECORD
  5
4C263
102
{ACAD_REACTORS
330
4592A
102
}
100
AcDbXrecord
340
458D3
  0
DICTIONARY
  5
4C267
100
AcDbDictionary
280
     1
  3
ACAD_XREC_ROUNDTRIP
360
4C268
  0
ACAD_PROXY_OBJECT
  5
458FE
102
{ACAD_REACTORS
330
458FB
102
}
100
AcDbProxyObject
 90
      499
 91
      503
 93
     1348
310
91D4850204C617365724A65742035303030205365726965732050434C20362C00AAAAAA416AA547D11959985D5B1D08148C4D081C195B88185CDCDA59DB9B595B9D1CCB98DD1891069074C61796F75743140501A800000000000000000000000000000000000000000000A1000000000000008902A6A6A10232D5E076BC551
310
0408CB5781DAF154410232D5E076BC5510408CB5781DAF15C410232D5E076BC5710408CB5781DAF15C40
330
458D3
330
0
340
0
340
0
 94
        0
  0
ACAD_PROXY_OBJECT
  5
458FD
102
{ACAD_REACTORS
330
458FB
102
}
100
AcDbProxyObject
 90
      499
 91
      503
 93
      924
310
91D4850204C617365724A65742035303030205365726965732050434C20362C01AAAAAAAAA547D11959985D5B1D08148C4D081C195B88185CDCDA59DB9B595B9D1CCB98DD18A69054D6F64656C901A800000000000000000000000000000000000000000000A1000000000000008902A6A6AAAA1
330
458D6
330
0
340
0
340
0
 94
        0
  0
MLINESTYLE
  5
458DA
102
{ACAD_REACTORS
330
458D9
102
}
100
AcDbMlineStyle
  2
STANDARD
 70
     0
  3

 62
   256
 51
90.0
 52
90.0
 71
     2
 49
0.5
 62
   256
  6
BYLAYER
 49
-0.5
 62
   256
  6
BYLAYER
  0
ACAD_PROXY_OBJECT
  5
458FA
102
{ACAD_REACTORS
330
458F9
102
}
100
AcDbProxyObject
 90
      499
 91
      502
 93
        0
 94
        0
  0
XRECORD
  5
4C24C
102
{ACAD_REACTORS
330
4C242
102
}
100
AcDbXrecord
 90
        0
  0
XRECORD
  5
4C250
102
{ACAD_REACTORS
330
4C242
102
}
100
AcDbXrecord
1000
DSTYLE
1002
{
1070
   276
 70
     2
1070
   277
 70
     5
1070
   279
 70
     2
1002
}
  0
XRECORD
  5
4C24D
102
{ACAD_REACTORS
330
4C242
102
}
100
AcDbXrecord
  1
{6E0CF4B8-225E-11D4-A150-00A0CC3303EC}
  0
XRECORD
  5
4C245
102
{ACAD_REACTORS
330
4C242
102
}
100
AcDbXrecord
  1

  0
XRECORD
  5
4C24B
102
{ACAD_REACTORS
330
4C242
102
}
100
AcDbXrecord
 90
        0
  0
XRECORD
  5
4C247
102
{ACAD_REACTORS
330
4C242
102
}
100
AcDbXrecord
340
458FB
  0
XRECORD
  5
4C24A
102
{ACAD_REACTORS
330
4C242
102
}
100
AcDbXrecord
 90
    14877
  0
XRECORD
  5
4C248
102
{ACAD_REACTORS
330
4C242
102
}
100
AcDbXrecord
340
458FC
  0
XRECORD
  5
4C249
102
{ACAD_REACTORS
330
4C242
102
}
100
AcDbXrecord
340
458F9
  0
XRECORD
  5
4C24F
102
{ACAD_REACTORS
330
4C242
102
}
100
AcDbXrecord
 40
0.0
  0
XRECORD
  5
4C253
102
{ACAD_REACTORS
330
4C242
102
}
100
AcDbXrecord
340
0
  0
XRECORD
  5
4C259
102
{ACAD_REACTORS
330
4C242
102
}
100
AcDbXrecord
 10
0.0
 20
0.0
 30
0.0
  0
XRECORD
  5
4C255
102
{ACAD_REACTORS
330
4C242
102
}
100
AcDbXrecord
 10
0.0
 20
0.0
 30
0.0
  0
XRECORD
  5
4C258
102
{ACAD_REACTORS
330
4C242
102
}
100
AcDbXrecord
 10
0.0
 20
0.0
 30
0.0
  0
XRECORD
  5
4C256
102
{ACAD_REACTORS
330
4C242
102
}
100
AcDbXrecord
 10
0.0
 20
0.0
 30
0.0
  0
XRECORD
  5
4C257
102
{ACAD_REACTORS
330
4C242
102
}
100
AcDbXrecord
 10
0.0
 20
0.0
 30
0.0
  0
XRECORD
  5
4C254
102
{ACAD_REACTORS
330
4C242
102
}
100
AcDbXrecord
 10
0.0
 20
0.0
 30
0.0
  0
XRECORD
  5
4C251
102
{ACAD_REACTORS
330
4C242
102
}
100
AcDbXrecord
340
0
  0
XRECORD
  5
4C252
102
{ACAD_REACTORS
330
4C242
102
}
100
AcDbXrecord
 70
     0
  0
XRECORD
  5
4C246
102
{ACAD_REACTORS
330
4C242
102
}
100
AcDbXrecord
  1

  0
XRECORD
  5
4C243
102
{ACAD_REACTORS
330
4C242
102
}
100
AcDbXrecord
 90
        1
  0
XRECORD
  5
4C244
102
{ACAD_REACTORS
330
4C242
102
}
100
AcDbXrecord
 90
       70
  0
XRECORD
  5
4C25C
102
{ACAD_REACTORS
330
4C242
102
}
100
AcDbXrecord
340
0
  0
XRECORD
  5
4C262
102
{ACAD_REACTORS
330
4C242
102
}
100
AcDbXrecord
 10
0.0
 20
0.0
 30
0.0
  0
XRECORD
  5
4C25E
102
{ACAD_REACTORS
330
4C242
102
}
100
AcDbXrecord
 10
0.0
 20
0.0
 30
0.0
  0
XRECORD
  5
4C261
102
{ACAD_REACTORS
330
4C242
102
}
100
AcDbXrecord
 10
0.0
 20
0.0
 30
0.0
  0
XRECORD
  5
4C25F
102
{ACAD_REACTORS
330
4C242
102
}
100
AcDbXrecord
 10
0.0
 20
0.0
 30
0.0
  0
XRECORD
  5
4C260
102
{ACAD_REACTORS
330
4C242
102
}
100
AcDbXrecord
 10
0.0
 20
0.0
 30
0.0
  0
XRECORD
  5
4C25D
102
{ACAD_REACTORS
330
4C242
102
}
100
AcDbXrecord
 10
0.0
 20
0.0
 30
0.0
  0
XRECORD
  5
4C25A
102
{ACAD_REACTORS
330
4C242
102
}
100
AcDbXrecord
340
0
  0
XRECORD
  5
4C25B
102
{ACAD_REACTORS
330
4C242
102
}
100
AcDbXrecord
 70
     1
  0
XRECORD
  5
4C24E
102
{ACAD_REACTORS
330
4C242
102
}
100
AcDbXrecord
  1
{6E72C8D9-735F-4606-9F75-AA5CCD120DDC}
  0
DICTIONARYVAR
  5
458E2
102
{ACAD_REACTORS
330
458E1
102
}
100
DictionaryVariables
280
     0
  1
0
  0
XRECORD
  5
4C268
102
{ACAD_REACTORS
330
4C267
102
}
100
AcDbXrecord
102
EXTNAMES
  1
LAYOUT1
  2
Layout1
  1
MODEL
  2
Model
  0
ENDSEC
  0
EOF
