  0
SECTION
  2
HEADER
  9
$ACADVER
  1
AC1014
  9
$ACADMAINTVER
 70
     8
  9
$DWGCODEPAGE
  3
ANSI_1252
  9
$INSBASE
 10
0.0
 20
0.0
 30
0.0
  9
$EXTMIN
 10
-5.544021
 20
-13.012364
 30
-1.460338
  9
$EXTMAX
 10
3.5
 20
2.334794
 30
9.080338
  9
$LIMMIN
 10
0.0
 20
0.0
  9
$LIMMAX
 10
12.0
 20
9.0
  9
$ORTHOMODE
 70
     0
  9
$REGENMODE
 70
     1
  9
$FILLMODE
 70
     1
  9
$QTEXTMODE
 70
     0
  9
$MIRRTEXT
 70
     1
  9
$DRAGMODE
 70
     2
  9
$LTSCALE
 40
1.0
  9
$OSMODE
 70
    37
  9
$ATTMODE
 70
     0
  9
$TEXTSIZE
 40
0.2
  9
$TRACEWID
 40
0.05
  9
$TEXTSTYLE
  7
STANDARD
  9
$CLAYER
  8
0
  9
$CELTYPE
  6
BYLAYER
  9
$CECOLOR
 62
   256
  9
$CELTSCALE
 40
1.0
  9
$DELOBJ
 70
     1
  9
$DISPSILH
 70
     0
  9
$DIMSCALE
 40
0.0
  9
$DIMASZ
 40
0.18
  9
$DIMEXO
 40
0.0625
  9
$DIMDLI
 40
0.375
  9
$DIMRND
 40
0.0
  9
$DIMDLE
 40
0.0
  9
$DIMEXE
 40
0.18
  9
$DIMTP
 40
0.0
  9
$DIMTM
 40
0.0
  9
$DIMTXT
 40
0.13
  9
$DIMCEN
 40
0.09
  9
$DIMTSZ
 40
0.0
  9
$DIMTOL
 70
     0
  9
$DIMLIM
 70
     0
  9
$DIMTIH
 70
     0
  9
$DIMTOH
 70
     1
  9
$DIMSE1
 70
     0
  9
$DIMSE2
 70
     0
  9
$DIMTAD
 70
     0
  9
$DIMZIN
 70
     4
  9
$DIMBLK
  1

  9
$DIMASO
 70
     1
  9
$DIMSHO
 70
     1
  9
$DIMPOST
  1

  9
$DIMAPOST
  1

  9
$DIMALT
 70
     1
  9
$DIMALTD
 70
     2
  9
$DIMALTF
 40
25.4
  9
$DIMLFAC
 40
1.0
  9
$DIMTOFL
 70
     0
  9
$DIMTVP
 40
0.0
  9
$DIMTIX
 70
     0
  9
$DIMSOXD
 70
     0
  9
$DIMSAH
 70
     0
  9
$DIMBLK1
  1

  9
$DIMBLK2
  1

  9
$DIMSTYLE
  2
ABECAD_3V
  9
$DIMCLRD
 70
     0
  9
$DIMCLRE
 70
     0
  9
$DIMCLRT
 70
     0
  9
$DIMTFAC
 40
1.5
  9
$DIMGAP
 40
0.09
  9
$DIMJUST
 70
     0
  9
$DIMSD1
 70
     0
  9
$DIMSD2
 70
     0
  9
$DIMTOLJ
 70
     1
  9
$DIMTZIN
 70
     4
  9
$DIMALTZ
 70
     4
  9
$DIMALTTZ
 70
     4
  9
$DIMFIT
 70
     5
  9
$DIMUPT
 70
     1
  9
$DIMUNIT
 70
     7
  9
$DIMDEC
 70
     6
  9
$DIMTDEC
 70
     6
  9
$DIMALTU
 70
     2
  9
$DIMALTTD
 70
     2
  9
$DIMTXSTY
  7
STANDARD
  9
$DIMAUNIT
 70
     0
  9
$LUNITS
 70
     2
  9
$LUPREC
 70
     6
  9
$SKETCHINC
 40
0.1
  9
$FILLETRAD
 40
0.0
  9
$AUNITS
 70
     0
  9
$AUPREC
 70
     0
  9
$MENU
  1
acad
  9
$ELEVATION
 40
0.0
  9
$PELEVATION
 40
0.0
  9
$THICKNESS
 40
0.0
  9
$LIMCHECK
 70
     0
  9
$BLIPMODE
 70
     0
  9
$CHAMFERA
 40
0.0
  9
$CHAMFERB
 40
0.0
  9
$CHAMFERC
 40
0.0
  9
$CHAMFERD
 40
0.0
  9
$SKPOLY
 70
     0
  9
$TDCREATE
 40
2451726.438362384
  9
$TDUPDATE
 40
2452010.731619560
  9
$TDINDWG
 40
0.1279709491
  9
$TDUSRTIMER
 40
0.1279709491
  9
$USRTIMER
 70
     1
  9
$ANGBASE
 50
0.0
  9
$ANGDIR
 70
     0
  9
$PDMODE
 70
     3
  9
$PDSIZE
 40
0.18
  9
$PLINEWID
 40
0.0
  9
$COORDS
 70
     1
  9
$SPLFRAME
 70
     0
  9
$SPLINETYPE
 70
     6
  9
$SPLINESEGS
 70
     8
  9
$ATTDIA
 70
     0
  9
$ATTREQ
 70
     1
  9
$HANDLING
 70
     1
  9
$HANDSEED
  5
9AF1
  9
$SURFTAB1
 70
     6
  9
$SURFTAB2
 70
     6
  9
$SURFTYPE
 70
     6
  9
$SURFU
 70
     6
  9
$SURFV
 70
     6
  9
$UCSNAME
  2

  9
$UCSORG
 10
0.0
 20
0.0
 30
0.0
  9
$UCSXDIR
 10
1.0
 20
0.0
 30
0.0
  9
$UCSYDIR
 10
0.0
 20
1.0
 30
0.0
  9
$PUCSNAME
  2

  9
$PUCSORG
 10
0.0
 20
0.0
 30
0.0
  9
$PUCSXDIR
 10
1.0
 20
0.0
 30
0.0
  9
$PUCSYDIR
 10
0.0
 20
1.0
 30
0.0
  9
$USERI1
 70
     0
  9
$USERI2
 70
     0
  9
$USERI3
 70
     0
  9
$USERI4
 70
     0
  9
$USERI5
 70
     0
  9
$USERR1
 40
0.0
  9
$USERR2
 40
0.0
  9
$USERR3
 40
0.0
  9
$USERR4
 40
0.0
  9
$USERR5
 40
0.0
  9
$WORLDVIEW
 70
     1
  9
$SHADEDGE
 70
     3
  9
$SHADEDIF
 70
    70
  9
$TILEMODE
 70
     0
  9
$MAXACTVP
 70
    16
  9
$PINSBASE
 10
0.0
 20
0.0
 30
0.0
  9
$PLIMCHECK
 70
     0
  9
$PEXTMIN
 10
0.0
 20
0.0
 30
0.0
  9
$PEXTMAX
 10
10.0
 20
7.5
 30
0.0
  9
$PLIMMIN
 10
-0.187029
 20
-0.186938
  9
$PLIMMAX
 10
10.187518
 20
7.829757
  9
$UNITMODE
 70
     0
  9
$VISRETAIN
 70
     0
  9
$PLINEGEN
 70
     0
  9
$PSLTSCALE
 70
     1
  9
$TREEDEPTH
 70
  3020
  9
$PICKSTYLE
 70
     1
  9
$CMLSTYLE
  2
STANDARD
  9
$CMLJUST
 70
     0
  9
$CMLSCALE
 40
1.0
  9
$PROXYGRAPHICS
 70
     1
  9
$MEASUREMENT
 70
     0
  0
ENDSEC
  0
SECTION
  2
CLASSES
  0
CLASS
  1
DICTIONARYVAR
  2
AcDbDictionaryVar
  3
"AutoCAD"
 90
        0
280
     0
281
     0
  0
CLASS
  1
ACDBDICTIONARYWDFLT
  2
AcDbDictionaryWithDefault
  3
AutoCAD 2000
 90
        0
280
     0
281
     0
  0
CLASS
  1
ACDBPLACEHOLDER
  2
AcDbPlaceHolder
  3
AutoCAD 2000
 90
        0
280
     0
281
     0
  0
CLASS
  1
LAYOUT
  2
AcDbLayout
  3
AutoCAD 2000
 90
        0
280
     0
281
     0
  0
CLASS
  1
LONG_TRANSACTION
  2
AcDbLongTransaction
  3
AutoCAD 2000
 90
        0
280
     0
281
     0
  0
CLASS
  1
LWPOLYLINE
  2
AcDbPolyline
  3
"AutoCAD"
 90
        0
280
     0
281
     1
  0
CLASS
  1
HATCH
  2
AcDbHatch
  3
"ACAD_SEDONA"
 90
        0
280
     0
281
     1
  0
CLASS
  1
XRECORD
  2
AcDbXrecord
  3
"<Built In>"
 90
        0
280
     0
281
     0
  0
CLASS
  1
LONG_TRANSACTION
  2
AcDbLongTransaction
  3
AutoCAD 2000
 90
        0
280
     0
281
     0
  0
CLASS
  1
LWPOLYLINE
  2
AcDbPolyline
  3
"AutoCAD"
 90
        0
280
     0
281
     1
  0
CLASS
  1
HATCH
  2
AcDbHatch
  3
"ACAD_SEDONA"
 90
        0
280
     0
281
     1
  0
CLASS
  1
XRECORD
  2
AcDbXrecord
  3
"<Built In>"
 90
        0
280
     0
281
     0
  0
CLASS
  1
LONG_TRANSACTION
  2
AcDbLongTransaction
  3
AutoCAD 2000
 90
        0
280
     0
281
     0
  0
CLASS
  1
LWPOLYLINE
  2
AcDbPolyline
  3
"AutoCAD"
 90
        0
280
     0
281
     1
  0
CLASS
  1
HATCH
  2
AcDbHatch
  3
"ACAD_SEDONA"
 90
        0
280
     0
281
     1
  0
CLASS
  1
XRECORD
  2
AcDbXrecord
  3
"<Built In>"
 90
        0
280
     0
281
     0
  0
CLASS
  1
LONG_TRANSACTION
  2
AcDbLongTransaction
  3
AutoCAD 2000
 90
        0
280
     0
281
     0
  0
CLASS
  1
LWPOLYLINE
  2
AcDbPolyline
  3
"AutoCAD"
 90
        0
280
     0
281
     1
  0
CLASS
  1
HATCH
  2
AcDbHatch
  3
"ACAD_SEDONA"
 90
        0
280
     0
281
     1
  0
CLASS
  1
XRECORD
  2
AcDbXrecord
  3
"<Built In>"
 90
        0
280
     0
281
     0
  0
CLASS
  1
LONG_TRANSACTION
  2
AcDbLongTransaction
  3
AutoCAD 2000
 90
        0
280
     0
281
     0
  0
CLASS
  1
LWPOLYLINE
  2
AcDbPolyline
  3
"AutoCAD"
 90
        0
280
     0
281
     1
  0
CLASS
  1
HATCH
  2
AcDbHatch
  3
"ACAD_SEDONA"
 90
        0
280
     0
281
     1
  0
CLASS
  1
XRECORD
  2
AcDbXrecord
  3
"<Built In>"
 90
        0
280
     0
281
     0
  0
CLASS
  1
LONG_TRANSACTION
  2
AcDbLongTransaction
  3
AutoCAD 2000
 90
        0
280
     0
281
     0
  0
CLASS
  1
LWPOLYLINE
  2
AcDbPolyline
  3
"AutoCAD"
 90
        0
280
     0
281
     1
  0
CLASS
  1
HATCH
  2
AcDbHatch
  3
"ACAD_SEDONA"
 90
        0
280
     0
281
     1
  0
CLASS
  1
XRECORD
  2
AcDbXrecord
  3
"<Built In>"
 90
        0
280
     0
281
     0
  0
CLASS
  1
LONG_TRANSACTION
  2
AcDbLongTransaction
  3
AutoCAD 2000
 90
        0
280
     0
281
     0
  0
CLASS
  1
LWPOLYLINE
  2
AcDbPolyline
  3
"AutoCAD"
 90
        0
280
     0
281
     1
  0
CLASS
  1
HATCH
  2
AcDbHatch
  3
"ACAD_SEDONA"
 90
        0
280
     0
281
     1
  0
CLASS
  1
XRECORD
  2
AcDbXrecord
  3
"<Built In>"
 90
        0
280
     0
281
     0
  0
CLASS
  1
LONG_TRANSACTION
  2
AcDbLongTransaction
  3
AutoCAD 2000
 90
        0
280
     0
281
     0
  0
CLASS
  1
LWPOLYLINE
  2
AcDbPolyline
  3
"AutoCAD"
 90
        0
280
     0
281
     1
  0
CLASS
  1
HATCH
  2
AcDbHatch
  3
"ACAD_SEDONA"
 90
        0
280
     0
281
     1
  0
CLASS
  1
XRECORD
  2
AcDbXrecord
  3
"<Built In>"
 90
        0
280
     0
281
     0
  0
CLASS
  1
LONG_TRANSACTION
  2
AcDbLongTransaction
  3
AutoCAD 2000
 90
        0
280
     0
281
     0
  0
CLASS
  1
LWPOLYLINE
  2
AcDbPolyline
  3
"AutoCAD"
 90
        0
280
     0
281
     1
  0
CLASS
  1
HATCH
  2
AcDbHatch
  3
"ACAD_SEDONA"
 90
        0
280
     0
281
     1
  0
CLASS
  1
XRECORD
  2
AcDbXrecord
  3
"<Built In>"
 90
        0
280
     0
281
     0
  0
CLASS
  1
LONG_TRANSACTION
  2
AcDbLongTransaction
  3
AutoCAD 2000
 90
        0
280
     0
281
     0
  0
CLASS
  1
LWPOLYLINE
  2
AcDbPolyline
  3
"AutoCAD"
 90
        0
280
     0
281
     1
  0
CLASS
  1
HATCH
  2
AcDbHatch
  3
"ACAD_SEDONA"
 90
        0
280
     0
281
     1
  0
CLASS
  1
XRECORD
  2
AcDbXrecord
  3
"<Built In>"
 90
        0
280
     0
281
     0
  0
CLASS
  1
LONG_TRANSACTION
  2
AcDbLongTransaction
  3
AutoCAD 2000
 90
        0
280
     0
281
     0
  0
CLASS
  1
LWPOLYLINE
  2
AcDbPolyline
  3
"AutoCAD"
 90
        0
280
     0
281
     1
  0
CLASS
  1
HATCH
  2
AcDbHatch
  3
"ACAD_SEDONA"
 90
        0
280
     0
281
     1
  0
CLASS
  1
XRECORD
  2
AcDbXrecord
  3
"<Built In>"
 90
        0
280
     0
281
     0
  0
CLASS
  1
LONG_TRANSACTION
  2
AcDbLongTransaction
  3
AutoCAD 2000
 90
        0
280
     0
281
     0
  0
CLASS
  1
LWPOLYLINE
  2
AcDbPolyline
  3
"AutoCAD"
 90
        0
280
     0
281
     1
  0
CLASS
  1
HATCH
  2
AcDbHatch
  3
"ACAD_SEDONA"
 90
        0
280
     0
281
     1
  0
CLASS
  1
XRECORD
  2
AcDbXrecord
  3
"<Built In>"
 90
        0
280
     0
281
     0
  0
ENDSEC
  0
SECTION
  2
TABLES
  0
TABLE
  2
VPORT
  5
469
100
AcDbSymbolTable
 70
     1
  0
VPORT
  5
9A20
102
{ACAD_XDICTIONARY
360
9AB9
102
}
100
AcDbSymbolTableRecord
100
AcDbViewportTableRecord
  2
*ACTIVE
 70
     0
 10
0.0
 20
0.0
 11
1.0
 21
1.0
 12
-0.746926
 22
-5.613869
 13
0.0
 23
0.0
 14
1.0
 24
1.0
 15
0.0
 25
0.0
 16
0.0
 26
0.0
 36
1.0
 17
0.0
 27
0.0
 37
0.0
 40
14.962318
 41
1.777985
 42
50.0
 43
0.0
 44
0.0
 50
0.0
 51
0.0
 71
     0
 72
   100
 73
     1
 74
     1
 75
     0
 76
     0
 77
     0
 78
     0
  0
ENDTAB
  0
TABLE
  2
LTYPE
  5
466
100
AcDbSymbolTable
 70
     1
  0
LTYPE
  5
472
100
AcDbSymbolTableRecord
100
AcDbLinetypeTableRecord
  2
BYBLOCK
 70
     0
  3

 72
    65
 73
     0
 40
0.0
  0
LTYPE
  5
473
100
AcDbSymbolTableRecord
100
AcDbLinetypeTableRecord
  2
BYLAYER
 70
     0
  3

 72
    65
 73
     0
 40
0.0
  0
LTYPE
  5
474
100
AcDbSymbolTableRecord
100
AcDbLinetypeTableRecord
  2
CONTINUOUS
 70
     0
  3
Solid line
 72
    65
 73
     0
 40
0.0
  0
ENDTAB
  0
TABLE
  2
LAYER
  5
463
100
AcDbSymbolTable
 70
     8
  0
LAYER
  5
46F
100
AcDbSymbolTableRecord
100
AcDbLayerTableRecord
  2
0
 70
     0
 62
     7
  6
CONTINUOUS
  0
LAYER
  5
485
100
AcDbSymbolTableRecord
100
AcDbLayerTableRecord
  2
AREA1
 70
     0
 62
     7
  6
CONTINUOUS
  0
LAYER
  5
486
100
AcDbSymbolTableRecord
100
AcDbLayerTableRecord
  2
AREA2
 70
     0
 62
     7
  6
CONTINUOUS
  0
LAYER
  5
494
102
{ACAD_XDICTIONARY
360
9AE6
102
}
100
AcDbSymbolTableRecord
100
AcDbLayerTableRecord
  2
DEFPOINTS
 70
     0
 62
    -7
  6
CONTINUOUS
  0
LAYER
  5
495
100
AcDbSymbolTableRecord
100
AcDbLayerTableRecord
  2
DIMS-MTG-HOLES
 70
     0
 62
    -1
  6
CONTINUOUS
  0
LAYER
  5
4E6
100
AcDbSymbolTableRecord
100
AcDbLayerTableRecord
  2
SCALE
 70
     0
 62
    -7
  6
CONTINUOUS
  0
LAYER
  5
4ED
100
AcDbSymbolTableRecord
100
AcDbLayerTableRecord
  2
SNAP_POINTS
 70
     0
 62
    -1
  6
CONTINUOUS
  0
LAYER
  5
4F1
100
AcDbSymbolTableRecord
100
AcDbLayerTableRecord
  2
ATTRIBUTES
 70
     0
 62
    -7
  6
CONTINUOUS
  0
ENDTAB
  0
TABLE
  2
STYLE
  5
464
100
AcDbSymbolTable
 70
     1
  0
STYLE
  5
470
100
AcDbSymbolTableRecord
100
AcDbTextStyleTableRecord
  2
STANDARD
 70
     0
 40
0.0
 41
1.0
 50
0.0
 71
     0
 42
0.2
  3
txt
  4

  0
ENDTAB
  0
TABLE
  2
VIEW
  5
467
100
AcDbSymbolTable
 70
     0
  0
ENDTAB
  0
TABLE
  2
UCS
  5
468
100
AcDbSymbolTable
 70
     0
  0
ENDTAB
  0
TABLE
  2
APPID
  5
46A
100
AcDbSymbolTable
 70
     2
  0
APPID
  5
471
100
AcDbSymbolTableRecord
100
AcDbRegAppTableRecord
  2
ACAD
 70
     0
  0
APPID
  5
47E
100
AcDbSymbolTableRecord
100
AcDbRegAppTableRecord
  2
AVE_RENDER
 70
     0
  0
ENDTAB
  0
TABLE
  2
DIMSTYLE
  5
46B
100
AcDbSymbolTable
 70
     2
  0
DIMSTYLE
105
49A
102
{ACAD_XDICTIONARY
360
9AE8
102
}
102
{ACAD_REACTORS
330
99D9
330
999F
330
999E
102
}
100
AcDbSymbolTableRecord
100
AcDbDimStyleTableRecord
  2
ABECAD_3V
 70
     0
  3

  4

  5

  6

  7

 40
0.0
 41
0.18
 42
0.0625
 43
0.375
 44
0.18
 45
0.0
 46
0.0
 47
0.0
 48
0.0
140
0.13
141
0.09
142
0.0
143
25.4
144
1.0
145
0.0
146
1.5
147
0.09
 71
     0
 72
     0
 73
     0
 74
     1
 75
     0
 76
     0
 77
     0
 78
     4
170
     1
171
     2
172
     0
173
     0
174
     0
175
     0
176
     0
177
     0
178
     0
270
     7
271
     6
272
     6
273
     2
274
     2
340
470
275
     0
280
     0
281
     0
282
     0
283
     1
284
     4
285
     4
286
     4
287
     5
288
     1
  0
DIMSTYLE
105
512
102
{ACAD_XDICTIONARY
360
9AEC
102
}
100
AcDbSymbolTableRecord
100
AcDbDimStyleTableRecord
  2
ABECAD_3D
 70
     0
  3

  4

  5

  6

  7

 40
1.0
 41
0.18
 42
0.0625
 43
0.375
 44
0.18
 45
0.0
 46
0.0
 47
0.0
 48
0.0
140
0.18
141
0.09
142
0.0
143
25.4
144
1.0
145
0.0
146
1.5
147
0.09
 71
     0
 72
     0
 73
     0
 74
     1
 75
     0
 76
     0
 77
     0
 78
     4
170
     1
171
     2
172
     0
173
     0
174
     0
175
     0
176
     0
177
     0
178
     0
270
     7
271
     6
272
     6
273
     2
274
     2
340
470
275
     0
280
     0
281
     0
282
     0
283
     1
284
     4
285
     4
286
     4
287
     5
288
     1
  0
ENDTAB
  0
TABLE
  2
BLOCK_RECORD
  5
462
100
AcDbSymbolTable
 70
     3
  0
BLOCK_RECORD
  5
478
102
{ACAD_XDICTIONARY
360
4D2
102
}
100
AcDbSymbolTableRecord
100
AcDbBlockTableRecord
  2
*MODEL_SPACE
  0
BLOCK_RECORD
  5
475
102
{ACAD_XDICTIONARY
360
4D0
102
}
100
AcDbSymbolTableRecord
100
AcDbBlockTableRecord
  2
*PAPER_SPACE
  0
BLOCK_RECORD
  5
99AB
100
AcDbSymbolTableRecord
100
AcDbBlockTableRecord
  2
*D0
  0
BLOCK_RECORD
  5
99B8
100
AcDbSymbolTableRecord
100
AcDbBlockTableRecord
  2
*D1
  0
BLOCK_RECORD
  5
99DA
100
AcDbSymbolTableRecord
100
AcDbBlockTableRecord
  2
*D2
  0
ENDTAB
  0
ENDSEC
  0
SECTION
  2
BLOCKS
  0
BLOCK
  5
48B
100
AcDbEntity
  8
0
100
AcDbBlockBegin
  2
*MODEL_SPACE
 70
     0
 10
0.0
 20
0.0
 30
0.0
  3
*MODEL_SPACE
  1

  0
ENDBLK
  5
48C
100
AcDbEntity
  8
0
100
AcDbBlockEnd
  0
BLOCK
  5
489
100
AcDbEntity
 67
     1
  8
0
100
AcDbBlockBegin
  2
*PAPER_SPACE
 70
     0
 10
0.0
 20
0.0
 30
0.0
  3
*PAPER_SPACE
  1

  0
ENDBLK
  5
48A
100
AcDbEntity
 67
     1
  8
0
100
AcDbBlockEnd
  0
BLOCK
  5
99B6
100
AcDbEntity
  8
0
100
AcDbBlockBegin
  2
*D0
 70
     1
 10
0.0
 20
0.0
 30
0.0
  3
*D0
  1

  0
LINE
  5
9A77
100
AcDbEntity
  8
AREA1
 62
     0
100
AcDbLine
 10
-2.378531
 20
0.38
 30
0.0
 11
-5.544021
 21
0.38
 31
0.0
1001
ACAD
1000
RTLwPs
1070
   158
  0
LINE
  5
9A78
100
AcDbEntity
  8
AREA1
 62
     0
100
AcDbLine
 10
-2.376779
 20
-11.728559
 30
0.0
 11
-5.544021
 21
-11.728559
 31
0.0
1001
ACAD
1000
RTLwPs
1070
   158
  0
LINE
  5
9A79
100
AcDbEntity
  8
AREA1
 62
     0
100
AcDbLine
 10
-4.813852
 20
-0.350169
 30
0.0
 11
-4.813852
 21
-1.954349
 31
0.0
1001
ACAD
1000
RTLwPs
1070
   158
  0
LINE
  5
9A7A
100
AcDbEntity
  8
AREA1
 62
     0
100
AcDbLine
 10
-4.813852
 20
-10.99839
 30
0.0
 11
-4.813852
 21
-9.979449
 31
0.0
1001
ACAD
1000
RTLwPs
1070
   158
  0
MTEXT
  5
9A7B
100
AcDbEntity
  8
AREA1
 62
     0
100
AcDbMText
 10
-4.813852
 20
-5.966899
 30
0.0
 40
0.527344
 41
0.0
 71
     5
 72
     1
  1
\A1;12 7/64 [307.56]
 11
0.0
 21
1.0
 31
0.0
1001
ACAD
1000
MTEXTBEGIN
1070
    73
1070
     1
1070
    44
1040
1.0
1070
    74
1070
     0
1000
MTEXTEND
1000
MTEXTBEGIN
1070
    73
1070
     1
1070
    44
1040
1.0
1070
    74
1070
     0
1000
MTEXTEND
  0
SOLID
  5
9A7C
100
AcDbEntity
  8
AREA1
 62
     0
100
AcDbTrace
 10
-4.935547
 20
-0.350169
 30
0.0
 11
-4.692157
 21
-0.350169
 31
0.0
 12
-4.813852
 22
0.38
 32
0.0
 13
-4.813852
 23
0.38
 33
0.0
  0
SOLID
  5
9A7D
100
AcDbEntity
  8
AREA1
 62
     0
100
AcDbTrace
 10
-4.935547
 20
-10.99839
 30
0.0
 11
-4.692157
 21
-10.99839
 31
0.0
 12
-4.813852
 22
-11.728559
 32
0.0
 13
-4.813852
 23
-11.728559
 33
0.0
  0
POINT
  5
9A7E
100
AcDbEntity
  8
DEFPOINTS
 62
     0
100
AcDbPoint
 10
-2.125
 20
0.38
 30
0.0
  0
POINT
  5
9A7F
100
AcDbEntity
  8
DEFPOINTS
 62
     0
100
AcDbPoint
 10
-2.123248
 20
-11.728559
 30
3.12
  0
POINT
  5
9A80
100
AcDbEntity
  8
DEFPOINTS
 62
     0
100
AcDbPoint
 10
-4.813852
 20
-11.728559
 30
0.0
  0
ENDBLK
  5
99B7
100
AcDbEntity
  8
0
100
AcDbBlockEnd
  0
BLOCK
  5
99C3
100
AcDbEntity
  8
0
100
AcDbBlockBegin
  2
*D1
 70
     1
 10
0.0
 20
0.0
 30
0.0
  3
*D1
  1

  0
LINE
  5
9A6D
100
AcDbEntity
  8
AREA1
 62
     0
100
AcDbLine
 10
-3.5
 20
-8.336469
 30
0.0
 11
-3.5
 21
2.334794
 31
0.0
1001
ACAD
1000
RTLwPs
1070
   158
  0
LINE
  5
9A6E
100
AcDbEntity
  8
AREA1
 62
     0
100
AcDbLine
 10
3.5
 20
-8.336469
 30
0.0
 11
3.5
 21
2.334794
 31
0.0
1001
ACAD
1000
RTLwPs
1070
   158
  0
LINE
  5
9A6F
100
AcDbEntity
  8
AREA1
 62
     0
100
AcDbLine
 10
-2.769831
 20
1.604625
 30
0.0
 11
-2.375606
 21
1.604625
 31
0.0
1001
ACAD
1000
RTLwPs
1070
   158
  0
LINE
  5
9A70
100
AcDbEntity
  8
AREA1
 62
     0
100
AcDbLine
 10
2.769831
 20
1.604625
 30
0.0
 11
2.485428
 21
1.604625
 31
0.0
1001
ACAD
1000
RTLwPs
1070
   158
  0
MTEXT
  5
9A71
100
AcDbEntity
  8
AREA1
 62
     0
100
AcDbMText
 10
0.054911
 20
1.604625
 30
0.0
 40
0.527344
 41
0.0
 71
     5
 72
     1
  1
\A1;7 [177.80]
1001
ACAD
1000
MTEXTBEGIN
1070
    73
1070
     1
1070
    44
1040
1.0
1070
    74
1070
     0
1000
MTEXTEND
1000
MTEXTBEGIN
1070
    73
1070
     1
1070
    44
1040
1.0
1070
    74
1070
     0
1000
MTEXTEND
  0
SOLID
  5
9A72
100
AcDbEntity
  8
AREA1
 62
     0
100
AcDbTrace
 10
-2.769831
 20
1.72632
 30
0.0
 11
-2.769831
 21
1.48293
 31
0.0
 12
-3.5
 22
1.604625
 32
0.0
 13
-3.5
 23
1.604625
 33
0.0
  0
SOLID
  5
9A73
100
AcDbEntity
  8
AREA1
 62
     0
100
AcDbTrace
 10
2.769831
 20
1.72632
 30
0.0
 11
2.769831
 21
1.48293
 31
0.0
 12
3.5
 22
1.604625
 32
0.0
 13
3.5
 23
1.604625
 33
0.0
  0
POINT
  5
9A74
100
AcDbEntity
  8
DEFPOINTS
 62
     0
100
AcDbPoint
 10
-3.5
 20
-8.59
 30
0.0
  0
POINT
  5
9A75
100
AcDbEntity
  8
DEFPOINTS
 62
     0
100
AcDbPoint
 10
3.5
 20
-8.59
 30
0.0
  0
POINT
  5
9A76
100
AcDbEntity
  8
DEFPOINTS
 62
     0
100
AcDbPoint
 10
3.5
 20
1.604625
 30
0.0
  0
ENDBLK
  5
99C4
100
AcDbEntity
  8
0
100
AcDbBlockEnd
  0
BLOCK
  5
99E5
100
AcDbEntity
  8
0
100
AcDbBlockBegin
  2
*D2
 70
     1
 10
0.0
 20
0.0
 30
0.0
  3
*D2
  1

  0
LINE
  5
9A63
100
AcDbEntity
  8
AREA2
 62
     0
100
AcDbLine
 10
-2.783531
 20
7.62
 30
0.0
 11
-5.217925
 21
7.62
 31
0.0
1001
ACAD
1000
RTLwPs
1070
   158
  0
LINE
  5
9A64
100
AcDbEntity
  8
AREA2
 62
     0
100
AcDbLine
 10
-3.753531
 20
0.0
 30
0.0
 11
-5.217925
 21
0.0
 31
0.0
1001
ACAD
1000
RTLwPs
1070
   158
  0
LINE
  5
9A65
100
AcDbEntity
  8
AREA2
 62
     0
100
AcDbLine
 10
-4.487756
 20
8.350169
 30
0.0
 11
-4.487756
 21
9.080338
 31
0.0
1001
ACAD
1000
RTLwPs
1070
   158
  0
LINE
  5
9A66
100
AcDbEntity
  8
AREA2
 62
     0
100
AcDbLine
 10
-4.487756
 20
-0.730169
 30
0.0
 11
-4.487756
 21
-1.460338
 31
0.0
1001
ACAD
1000
RTLwPs
1070
   158
  0
MTEXT
  5
9A67
100
AcDbEntity
  8
AREA2
 62
     0
100
AcDbMText
 10
-4.487756
 20
3.723909
 30
0.0
 40
0.527344
 41
0.0
 71
     5
 72
     1
  1
\A1;7 5/8 [193.55]
 11
0.0
 21
1.0
 31
0.0
1001
ACAD
1000
MTEXTBEGIN
1070
    73
1070
     1
1070
    44
1040
1.0
1070
    74
1070
     0
1000
MTEXTEND
1000
MTEXTBEGIN
1070
    73
1070
     1
1070
    44
1040
1.0
1070
    74
1070
     0
1000
MTEXTEND
  0
SOLID
  5
9A68
100
AcDbEntity
  8
AREA2
 62
     0
100
AcDbTrace
 10
-4.609451
 20
8.350169
 30
0.0
 11
-4.366061
 21
8.350169
 31
0.0
 12
-4.487756
 22
7.62
 32
0.0
 13
-4.487756
 23
7.62
 33
0.0
  0
SOLID
  5
9A69
100
AcDbEntity
  8
AREA2
 62
     0
100
AcDbTrace
 10
-4.609451
 20
-0.730169
 30
0.0
 11
-4.366061
 21
-0.730169
 31
0.0
 12
-4.487756
 22
0.0
 32
0.0
 13
-4.487756
 23
0.0
 33
0.0
  0
POINT
  5
9A6A
100
AcDbEntity
  8
DEFPOINTS
 62
     0
100
AcDbPoint
 10
-2.53
 20
7.62
 30
0.17
  0
POINT
  5
9A6B
100
AcDbEntity
  8
DEFPOINTS
 62
     0
100
AcDbPoint
 10
-3.5
 20
0.0
 30
-0.38
  0
POINT
  5
9A6C
100
AcDbEntity
  8
DEFPOINTS
 62
     0
100
AcDbPoint
 10
-4.487756
 20
0.0
 30
0.0
  0
ENDBLK
  5
99E6
100
AcDbEntity
  8
0
100
AcDbBlockEnd
  0
ENDSEC
  0
SECTION
  2
ENTITIES
  0
ARC
  5
979F
100
AcDbEntity
  8
0
  6
BYBLOCK
100
AcDbCircle
 10
0.0
 20
0.0
 30
0.3
 40
0.171
100
AcDbArc
 50
0.0
 51
179.999985
  0
LINE
  5
97A0
100
AcDbEntity
  8
0
  6
BYBLOCK
100
AcDbLine
 10
-0.33
 20
-0.83
 30
0.3
 11
0.33
 21
-0.83
 31
0.3
  0
ARC
  5
97A1
100
AcDbEntity
  8
0
  6
BYBLOCK
100
AcDbCircle
 10
0.0
 20
0.0
 30
0.0
 40
0.171
100
AcDbArc
 50
0.0
 51
179.999985
  0
LINE
  5
97A2
100
AcDbEntity
  8
0
  6
BYBLOCK
100
AcDbLine
 10
-0.33
 20
-0.83
 30
0.0
 11
0.33
 21
-0.83
 31
0.0
  0
CIRCLE
  5
97A3
100
AcDbEntity
  8
0
  6
BYBLOCK
100
AcDbCircle
 10
-3.156
 20
-9.84
 30
0.3
 40
0.1715
  0
CIRCLE
  5
97A4
100
AcDbEntity
  8
0
  6
BYBLOCK
100
AcDbCircle
 10
-3.156
 20
-9.84
 30
0.0
 40
0.1715
  0
LINE
  5
97A5
100
AcDbEntity
  8
0
  6
BYBLOCK
100
AcDbLine
 10
-2.9845
 20
-9.84
 30
0.0
 11
-2.9845
 21
-9.84
 31
0.3
  0
LINE
  5
97A6
100
AcDbEntity
  8
0
  6
BYBLOCK
100
AcDbLine
 10
-0.531761
 20
-6.38854
 30
6.56
 11
-0.450898
 21
-6.624528
 31
6.56
  0
LINE
  5
97A7
100
AcDbEntity
  8
0
  6
BYBLOCK
100
AcDbLine
 10
-0.548214
 20
-6.394672
 30
6.56
 11
-0.467352
 21
-6.630661
 31
6.56
  0
CIRCLE
  5
97A8
100
AcDbEntity
  8
0
  6
BYBLOCK
100
AcDbCircle
 10
-0.5
 20
-6.51
 30
6.56
 40
0.125
  0
LINE
  5
97A9
100
AcDbEntity
  8
0
  6
BYBLOCK
100
AcDbLine
 10
-0.33
 20
-0.38
 30
0.3
 11
-0.33
 21
-0.83
 31
0.3
  0
LINE
  5
97AA
100
AcDbEntity
  8
0
  6
BYBLOCK
100
AcDbLine
 10
-0.33
 20
-0.38
 30
0.0
 11
-0.33
 21
-0.83
 31
0.0
  0
LINE
  5
97AB
100
AcDbEntity
  8
0
  6
BYBLOCK
100
AcDbLine
 10
-0.33
 20
-0.83
 30
0.0
 11
-0.33
 21
-0.83
 31
0.3
  0
LINE
  5
97AC
100
AcDbEntity
  8
0
  6
BYBLOCK
100
AcDbLine
 10
-0.171
 20
0.0
 30
0.0
 11
-0.171
 21
0.0
 31
0.3
  0
LINE
  5
97AD
100
AcDbEntity
  8
0
  6
BYBLOCK
100
AcDbLine
 10
-0.171
 20
-0.097761
 30
0.0
 11
-0.171
 21
-0.097761
 31
0.3
  0
LINE
  5
97AE
100
AcDbEntity
  8
0
  6
BYBLOCK
100
AcDbLine
 10
-0.33
 20
-0.38
 30
0.0
 11
-0.33
 21
-0.38
 31
0.3
  0
ARC
  5
97AF
100
AcDbEntity
  8
0
  6
BYBLOCK
100
AcDbCircle
 10
0.0
 20
-0.38
 30
0.0
 40
0.33
100
AcDbArc
 50
121.210365
 51
179.999985
  0
LINE
  5
97B0
100
AcDbEntity
  8
0
  6
BYBLOCK
100
AcDbLine
 10
-0.171
 20
0.0
 30
0.0
 11
-0.171
 21
-0.097761
 31
0.0
  0
ARC
  5
97B1
100
AcDbEntity
  8
0
  6
BYBLOCK
100
AcDbCircle
 10
0.0
 20
-0.38
 30
0.3
 40
0.33
100
AcDbArc
 50
121.210365
 51
179.999985
  0
LINE
  5
97B2
100
AcDbEntity
  8
0
  6
BYBLOCK
100
AcDbLine
 10
-0.171
 20
0.0
 30
0.3
 11
-0.171
 21
-0.097761
 31
0.3
  0
CIRCLE
  5
97B3
100
AcDbEntity
  8
0
  6
BYBLOCK
100
AcDbCircle
 10
3.156
 20
-9.84
 30
0.3
 40
0.1715
  0
CIRCLE
  5
97B4
100
AcDbEntity
  8
0
  6
BYBLOCK
100
AcDbCircle
 10
3.156
 20
-9.84
 30
0.0
 40
0.1715
  0
LINE
  5
97B5
100
AcDbEntity
  8
0
  6
BYBLOCK
100
AcDbLine
 10
3.3275
 20
-9.84
 30
0.0
 11
3.3275
 21
-9.84
 31
0.3
  0
LINE
  5
97B6
100
AcDbEntity
  8
0
  6
BYBLOCK
100
AcDbLine
 10
0.451786
 20
-6.394672
 30
6.56
 11
0.532648
 21
-6.630661
 31
6.56
  0
CIRCLE
  5
97B7
100
AcDbEntity
  8
0
  6
BYBLOCK
100
AcDbCircle
 10
0.5
 20
-6.51
 30
6.56
 40
0.125
  0
LINE
  5
97B8
100
AcDbEntity
  8
0
  6
BYBLOCK
100
AcDbLine
 10
0.468239
 20
-6.38854
 30
6.56
 11
0.549102
 21
-6.624528
 31
6.56
  0
LINE
  5
97B9
100
AcDbEntity
  8
0
  6
BYBLOCK
100
AcDbLine
 10
0.33
 20
-0.38
 30
0.3
 11
0.33
 21
-0.83
 31
0.3
  0
LINE
  5
97BA
100
AcDbEntity
  8
0
  6
BYBLOCK
100
AcDbLine
 10
0.33
 20
-0.38
 30
0.0
 11
0.33
 21
-0.83
 31
0.0
  0
LINE
  5
97BB
100
AcDbEntity
  8
0
  6
BYBLOCK
100
AcDbLine
 10
0.33
 20
-0.83
 30
0.0
 11
0.33
 21
-0.83
 31
0.3
  0
LINE
  5
97BC
100
AcDbEntity
  8
0
  6
BYBLOCK
100
AcDbLine
 10
1.1715
 20
0.0
 30
0.0
 11
1.1715
 21
0.0
 31
0.3
  0
LINE
  5
97BD
100
AcDbEntity
  8
0
  6
BYBLOCK
100
AcDbLine
 10
0.171
 20
0.0
 30
0.0
 11
0.171
 21
0.0
 31
0.3
  0
LINE
  5
97BE
100
AcDbEntity
  8
0
  6
BYBLOCK
100
AcDbLine
 10
0.33
 20
-0.38
 30
0.0
 11
0.33
 21
-0.38
 31
0.3
  0
CIRCLE
  5
97BF
100
AcDbEntity
  8
0
  6
BYBLOCK
100
AcDbCircle
 10
1.0
 20
0.0
 30
0.0
 40
0.1715
  0
CIRCLE
  5
97C0
100
AcDbEntity
  8
0
  6
BYBLOCK
100
AcDbCircle
 10
1.0
 20
0.0
 30
0.0
 40
0.1715
  0
ARC
  5
97C1
100
AcDbEntity
  8
0
  6
BYBLOCK
100
AcDbCircle
 10
0.0
 20
-0.38
 30
0.0
 40
0.33
100
AcDbArc
 50
0.0
 51
58.789623
  0
LINE
  5
97C2
100
AcDbEntity
  8
0
  6
BYBLOCK
100
AcDbLine
 10
0.171
 20
0.0
 30
0.0
 11
0.171
 21
-0.097761
 31
0.0
  0
LINE
  5
97C3
100
AcDbEntity
  8
0
  6
BYBLOCK
100
AcDbLine
 10
0.171
 20
0.0
 30
0.0
 11
0.171
 21
-0.097761
 31
0.0
  0
LINE
  5
97C4
100
AcDbEntity
  8
0
  6
BYBLOCK
100
AcDbLine
 10
0.171
 20
-0.097761
 30
0.0
 11
0.171
 21
-0.097761
 31
0.0
  0
LINE
  5
97C5
100
AcDbEntity
  8
0
  6
BYBLOCK
100
AcDbLine
 10
0.171
 20
0.0
 30
0.0
 11
0.171
 21
0.0
 31
0.0
  0
CIRCLE
  5
97C6
100
AcDbEntity
  8
0
  6
BYBLOCK
100
AcDbCircle
 10
1.0
 20
0.0
 30
0.3
 40
0.1715
  0
CIRCLE
  5
97C7
100
AcDbEntity
  8
0
  6
BYBLOCK
100
AcDbCircle
 10
1.0
 20
0.0
 30
0.3
 40
0.1715
  0
ARC
  5
97C8
100
AcDbEntity
  8
0
  6
BYBLOCK
100
AcDbCircle
 10
0.0
 20
-0.38
 30
0.3
 40
0.33
100
AcDbArc
 50
0.0
 51
57.774494
  0
CIRCLE
  5
97C9
100
AcDbEntity
  8
0
  6
BYBLOCK
100
AcDbCircle
 10
2.03
 20
-0.73
 30
7.62
 40
0.3125
  0
CIRCLE
  5
97CA
100
AcDbEntity
  8
0
  6
BYBLOCK
100
AcDbCircle
 10
2.03
 20
-0.73
 30
7.62
 40
0.375
  0
POLYLINE
  5
97CB
100
AcDbEntity
  8
0
100
AcDbPolygonMesh
 66
     1
 10
0.0
 20
0.0
 30
0.0
 70
    16
 71
     6
 72
     3
  0
VERTEX
  5
97CC
100
AcDbEntity
  8
0
100
AcDbVertex
100
AcDbPolygonMeshVertex
 10
3.19
 20
-9.38
 30
5.8
 70
    64
  0
VERTEX
  5
97CD
100
AcDbEntity
  8
0
100
AcDbVertex
100
AcDbPolygonMeshVertex
 10
3.19
 20
-9.38
 30
4.06
 70
    64
  0
VERTEX
  5
97CE
100
AcDbEntity
  8
0
100
AcDbVertex
100
AcDbPolygonMeshVertex
 10
3.19
 20
-9.38
 30
4.06
 70
    64
  0
VERTEX
  5
97CF
100
AcDbEntity
  8
0
100
AcDbVertex
100
AcDbPolygonMeshVertex
 10
-3.190001
 20
-9.38
 30
5.8
 70
    64
  0
VERTEX
  5
97D0
100
AcDbEntity
  8
0
100
AcDbVertex
100
AcDbPolygonMeshVertex
 10
-3.190001
 20
-9.38
 30
4.06
 70
    64
  0
VERTEX
  5
97D1
100
AcDbEntity
  8
0
100
AcDbVertex
100
AcDbPolygonMeshVertex
 10
-3.190001
 20
-9.38
 30
4.06
 70
    64
  0
VERTEX
  5
97D2
100
AcDbEntity
  8
0
100
AcDbVertex
100
AcDbPolygonMeshVertex
 10
-3.190001
 20
-5.31
 30
5.8
 70
    64
  0
VERTEX
  5
97D3
100
AcDbEntity
  8
0
100
AcDbVertex
100
AcDbPolygonMeshVertex
 10
-3.190001
 20
-5.31
 30
4.06
 70
    64
  0
VERTEX
  5
97D4
100
AcDbEntity
  8
0
100
AcDbVertex
100
AcDbPolygonMeshVertex
 10
-3.190001
 20
-9.38
 30
4.06
 70
    64
  0
VERTEX
  5
97D5
100
AcDbEntity
  8
0
100
AcDbVertex
100
AcDbPolygonMeshVertex
 10
3.19
 20
-5.31
 30
5.8
 70
    64
  0
VERTEX
  5
97D6
100
AcDbEntity
  8
0
100
AcDbVertex
100
AcDbPolygonMeshVertex
 10
3.19
 20
-5.31
 30
4.06
 70
    64
  0
VERTEX
  5
97D7
100
AcDbEntity
  8
0
100
AcDbVertex
100
AcDbPolygonMeshVertex
 10
3.19
 20
-9.38
 30
4.06
 70
    64
  0
VERTEX
  5
97D8
100
AcDbEntity
  8
0
100
AcDbVertex
100
AcDbPolygonMeshVertex
 10
3.19
 20
-5.31
 30
5.8
 70
    64
  0
VERTEX
  5
97D9
100
AcDbEntity
  8
0
100
AcDbVertex
100
AcDbPolygonMeshVertex
 10
3.19
 20
-5.31
 30
5.8
 70
    64
  0
VERTEX
  5
97DA
100
AcDbEntity
  8
0
100
AcDbVertex
100
AcDbPolygonMeshVertex
 10
3.19
 20
-9.38
 30
5.8
 70
    64
  0
VERTEX
  5
97DB
100
AcDbEntity
  8
0
100
AcDbVertex
100
AcDbPolygonMeshVertex
 10
-3.190001
 20
-5.31
 30
5.8
 70
    64
  0
VERTEX
  5
97DC
100
AcDbEntity
  8
0
100
AcDbVertex
100
AcDbPolygonMeshVertex
 10
-3.190001
 20
-5.31
 30
5.8
 70
    64
  0
VERTEX
  5
97DD
100
AcDbEntity
  8
0
100
AcDbVertex
100
AcDbPolygonMeshVertex
 10
-3.190001
 20
-9.38
 30
5.8
 70
    64
  0
SEQEND
  5
97DE
100
AcDbEntity
  8
0
  0
POLYLINE
  5
97DF
100
AcDbEntity
  8
0
100
AcDbPolygonMesh
 66
     1
 10
0.0
 20
0.0
 30
0.0
 70
    16
 71
     6
 72
     3
  0
VERTEX
  5
97E0
100
AcDbEntity
  8
0
100
AcDbVertex
100
AcDbPolygonMeshVertex
 10
3.0
 20
-11.1
 30
1.13
 70
    64
  0
VERTEX
  5
97E1
100
AcDbEntity
  8
0
100
AcDbVertex
100
AcDbPolygonMeshVertex
 10
3.0
 20
-11.1
 30
0.3
 70
    64
  0
VERTEX
  5
97E2
100
AcDbEntity
  8
0
100
AcDbVertex
100
AcDbPolygonMeshVertex
 10
3.0
 20
-11.1
 30
0.3
 70
    64
  0
VERTEX
  5
97E3
100
AcDbEntity
  8
0
100
AcDbVertex
100
AcDbPolygonMeshVertex
 10
-3.0
 20
-11.1
 30
1.13
 70
    64
  0
VERTEX
  5
97E4
100
AcDbEntity
  8
0
100
AcDbVertex
100
AcDbPolygonMeshVertex
 10
-3.0
 20
-11.1
 30
0.3
 70
    64
  0
VERTEX
  5
97E5
100
AcDbEntity
  8
0
100
AcDbVertex
100
AcDbPolygonMeshVertex
 10
-3.0
 20
-11.1
 30
0.3
 70
    64
  0
VERTEX
  5
97E6
100
AcDbEntity
  8
0
100
AcDbVertex
100
AcDbPolygonMeshVertex
 10
-3.0
 20
-0.88
 30
1.13
 70
    64
  0
VERTEX
  5
97E7
100
AcDbEntity
  8
0
100
AcDbVertex
100
AcDbPolygonMeshVertex
 10
-3.0
 20
-0.88
 30
0.3
 70
    64
  0
VERTEX
  5
97E8
100
AcDbEntity
  8
0
100
AcDbVertex
100
AcDbPolygonMeshVertex
 10
-3.0
 20
-11.1
 30
0.3
 70
    64
  0
VERTEX
  5
97E9
100
AcDbEntity
  8
0
100
AcDbVertex
100
AcDbPolygonMeshVertex
 10
3.0
 20
-0.88
 30
1.13
 70
    64
  0
VERTEX
  5
97EA
100
AcDbEntity
  8
0
100
AcDbVertex
100
AcDbPolygonMeshVertex
 10
3.0
 20
-0.88
 30
0.3
 70
    64
  0
VERTEX
  5
97EB
100
AcDbEntity
  8
0
100
AcDbVertex
100
AcDbPolygonMeshVertex
 10
3.0
 20
-11.1
 30
0.3
 70
    64
  0
VERTEX
  5
97EC
100
AcDbEntity
  8
0
100
AcDbVertex
100
AcDbPolygonMeshVertex
 10
3.0
 20
-0.88
 30
1.13
 70
    64
  0
VERTEX
  5
97ED
100
AcDbEntity
  8
0
100
AcDbVertex
100
AcDbPolygonMeshVertex
 10
3.0
 20
-0.88
 30
1.13
 70
    64
  0
VERTEX
  5
97EE
100
AcDbEntity
  8
0
100
AcDbVertex
100
AcDbPolygonMeshVertex
 10
3.0
 20
-11.1
 30
1.13
 70
    64
  0
VERTEX
  5
97EF
100
AcDbEntity
  8
0
100
AcDbVertex
100
AcDbPolygonMeshVertex
 10
-3.0
 20
-0.88
 30
1.13
 70
    64
  0
VERTEX
  5
97F0
100
AcDbEntity
  8
0
100
AcDbVertex
100
AcDbPolygonMeshVertex
 10
-3.0
 20
-0.88
 30
1.13
 70
    64
  0
VERTEX
  5
97F1
100
AcDbEntity
  8
0
100
AcDbVertex
100
AcDbPolygonMeshVertex
 10
-3.0
 20
-11.1
 30
1.13
 70
    64
  0
SEQEND
  5
97F2
100
AcDbEntity
  8
0
  0
POLYLINE
  5
97F3
100
AcDbEntity
  8
0
100
AcDbPolygonMesh
 66
     1
 10
0.0
 20
0.0
 30
0.0
 70
    16
 71
     6
 72
     3
  0
VERTEX
  5
97F4
100
AcDbEntity
  8
0
100
AcDbVertex
100
AcDbPolygonMeshVertex
 10
3.0
 20
-10.38
 30
4.06
 70
    64
  0
VERTEX
  5
97F5
100
AcDbEntity
  8
0
100
AcDbVertex
100
AcDbPolygonMeshVertex
 10
3.0
 20
-10.38
 30
1.13
 70
    64
  0
VERTEX
  5
97F6
100
AcDbEntity
  8
0
100
AcDbVertex
100
AcDbPolygonMeshVertex
 10
3.0
 20
-10.38
 30
1.13
 70
    64
  0
VERTEX
  5
97F7
100
AcDbEntity
  8
0
100
AcDbVertex
100
AcDbPolygonMeshVertex
 10
-3.0
 20
-10.38
 30
4.06
 70
    64
  0
VERTEX
  5
97F8
100
AcDbEntity
  8
0
100
AcDbVertex
100
AcDbPolygonMeshVertex
 10
-3.0
 20
-10.38
 30
1.13
 70
    64
  0
VERTEX
  5
97F9
100
AcDbEntity
  8
0
100
AcDbVertex
100
AcDbPolygonMeshVertex
 10
-3.0
 20
-10.38
 30
1.13
 70
    64
  0
VERTEX
  5
97FA
100
AcDbEntity
  8
0
100
AcDbVertex
100
AcDbPolygonMeshVertex
 10
-3.0
 20
-1.25
 30
4.06
 70
    64
  0
VERTEX
  5
97FB
100
AcDbEntity
  8
0
100
AcDbVertex
100
AcDbPolygonMeshVertex
 10
-3.0
 20
-1.25
 30
1.13
 70
    64
  0
VERTEX
  5
97FC
100
AcDbEntity
  8
0
100
AcDbVertex
100
AcDbPolygonMeshVertex
 10
-3.0
 20
-10.38
 30
1.13
 70
    64
  0
VERTEX
  5
97FD
100
AcDbEntity
  8
0
100
AcDbVertex
100
AcDbPolygonMeshVertex
 10
3.0
 20
-1.25
 30
4.06
 70
    64
  0
VERTEX
  5
97FE
100
AcDbEntity
  8
0
100
AcDbVertex
100
AcDbPolygonMeshVertex
 10
3.0
 20
-1.25
 30
1.13
 70
    64
  0
VERTEX
  5
97FF
100
AcDbEntity
  8
0
100
AcDbVertex
100
AcDbPolygonMeshVertex
 10
3.0
 20
-10.38
 30
1.13
 70
    64
  0
VERTEX
  5
9800
100
AcDbEntity
  8
0
100
AcDbVertex
100
AcDbPolygonMeshVertex
 10
3.0
 20
-1.25
 30
4.06
 70
    64
  0
VERTEX
  5
9801
100
AcDbEntity
  8
0
100
AcDbVertex
100
AcDbPolygonMeshVertex
 10
3.0
 20
-1.25
 30
4.06
 70
    64
  0
VERTEX
  5
9802
100
AcDbEntity
  8
0
100
AcDbVertex
100
AcDbPolygonMeshVertex
 10
3.0
 20
-10.38
 30
4.06
 70
    64
  0
VERTEX
  5
9803
100
AcDbEntity
  8
0
100
AcDbVertex
100
AcDbPolygonMeshVertex
 10
-3.0
 20
-1.25
 30
4.06
 70
    64
  0
VERTEX
  5
9804
100
AcDbEntity
  8
0
100
AcDbVertex
100
AcDbPolygonMeshVertex
 10
-3.0
 20
-1.25
 30
4.06
 70
    64
  0
VERTEX
  5
9805
100
AcDbEntity
  8
0
100
AcDbVertex
100
AcDbPolygonMeshVertex
 10
-3.0
 20
-10.38
 30
4.06
 70
    64
  0
SEQEND
  5
9806
100
AcDbEntity
  8
0
  0
POLYLINE
  5
9807
100
AcDbEntity
  8
0
100
AcDbPolygonMesh
 66
     1
 10
0.0
 20
0.0
 30
0.0
 70
    16
 71
     6
 72
     3
  0
VERTEX
  5
9808
100
AcDbEntity
  8
0
100
AcDbVertex
100
AcDbPolygonMeshVertex
 10
3.0
 20
-5.25
 30
5.5
 70
    64
  0
VERTEX
  5
9809
100
AcDbEntity
  8
0
100
AcDbVertex
100
AcDbPolygonMeshVertex
 10
3.0
 20
-5.25
 30
4.06
 70
    64
  0
VERTEX
  5
980A
100
AcDbEntity
  8
0
100
AcDbVertex
100
AcDbPolygonMeshVertex
 10
3.0
 20
-5.25
 30
4.06
 70
    64
  0
VERTEX
  5
980B
100
AcDbEntity
  8
0
100
AcDbVertex
100
AcDbPolygonMeshVertex
 10
-3.0
 20
-5.25
 30
5.5
 70
    64
  0
VERTEX
  5
980C
100
AcDbEntity
  8
0
100
AcDbVertex
100
AcDbPolygonMeshVertex
 10
-3.0
 20
-5.25
 30
4.06
 70
    64
  0
VERTEX
  5
980D
100
AcDbEntity
  8
0
100
AcDbVertex
100
AcDbPolygonMeshVertex
 10
-3.0
 20
-5.25
 30
4.06
 70
    64
  0
VERTEX
  5
980E
100
AcDbEntity
  8
0
100
AcDbVertex
100
AcDbPolygonMeshVertex
 10
-3.0
 20
-1.25
 30
5.5
 70
    64
  0
VERTEX
  5
980F
100
AcDbEntity
  8
0
100
AcDbVertex
100
AcDbPolygonMeshVertex
 10
-3.0
 20
-1.25
 30
4.06
 70
    64
  0
VERTEX
  5
9810
100
AcDbEntity
  8
0
100
AcDbVertex
100
AcDbPolygonMeshVertex
 10
-3.0
 20
-5.25
 30
4.06
 70
    64
  0
VERTEX
  5
9811
100
AcDbEntity
  8
0
100
AcDbVertex
100
AcDbPolygonMeshVertex
 10
3.0
 20
-1.25
 30
5.5
 70
    64
  0
VERTEX
  5
9812
100
AcDbEntity
  8
0
100
AcDbVertex
100
AcDbPolygonMeshVertex
 10
3.0
 20
-1.25
 30
4.06
 70
    64
  0
VERTEX
  5
9813
100
AcDbEntity
  8
0
100
AcDbVertex
100
AcDbPolygonMeshVertex
 10
3.0
 20
-5.25
 30
4.06
 70
    64
  0
VERTEX
  5
9814
100
AcDbEntity
  8
0
100
AcDbVertex
100
AcDbPolygonMeshVertex
 10
3.0
 20
-1.25
 30
5.5
 70
    64
  0
VERTEX
  5
9815
100
AcDbEntity
  8
0
100
AcDbVertex
100
AcDbPolygonMeshVertex
 10
3.0
 20
-1.25
 30
5.5
 70
    64
  0
VERTEX
  5
9816
100
AcDbEntity
  8
0
100
AcDbVertex
100
AcDbPolygonMeshVertex
 10
3.0
 20
-5.25
 30
5.5
 70
    64
  0
VERTEX
  5
9817
100
AcDbEntity
  8
0
100
AcDbVertex
100
AcDbPolygonMeshVertex
 10
-3.0
 20
-1.25
 30
5.5
 70
    64
  0
VERTEX
  5
9818
100
AcDbEntity
  8
0
100
AcDbVertex
100
AcDbPolygonMeshVertex
 10
-3.0
 20
-1.25
 30
5.5
 70
    64
  0
VERTEX
  5
9819
100
AcDbEntity
  8
0
100
AcDbVertex
100
AcDbPolygonMeshVertex
 10
-3.0
 20
-5.25
 30
5.5
 70
    64
  0
SEQEND
  5
981A
100
AcDbEntity
  8
0
  0
POLYLINE
  5
981B
100
AcDbEntity
  8
0
100
AcDbPolygonMesh
 66
     1
 10
0.0
 20
0.0
 30
0.0
 70
    16
 71
     6
 72
     3
  0
VERTEX
  5
981C
100
AcDbEntity
  8
0
100
AcDbVertex
100
AcDbPolygonMeshVertex
 10
3.0
 20
-2.44
 30
6.12
 70
    64
  0
VERTEX
  5
981D
100
AcDbEntity
  8
0
100
AcDbVertex
100
AcDbPolygonMeshVertex
 10
3.0
 20
-2.44
 30
5.5
 70
    64
  0
VERTEX
  5
981E
100
AcDbEntity
  8
0
100
AcDbVertex
100
AcDbPolygonMeshVertex
 10
3.0
 20
-2.44
 30
5.5
 70
    64
  0
VERTEX
  5
981F
100
AcDbEntity
  8
0
100
AcDbVertex
100
AcDbPolygonMeshVertex
 10
-3.0
 20
-2.44
 30
6.12
 70
    64
  0
VERTEX
  5
9820
100
AcDbEntity
  8
0
100
AcDbVertex
100
AcDbPolygonMeshVertex
 10
-3.0
 20
-2.44
 30
5.5
 70
    64
  0
VERTEX
  5
9821
100
AcDbEntity
  8
0
100
AcDbVertex
100
AcDbPolygonMeshVertex
 10
-3.0
 20
-2.44
 30
5.5
 70
    64
  0
VERTEX
  5
9822
100
AcDbEntity
  8
0
100
AcDbVertex
100
AcDbPolygonMeshVertex
 10
-3.0
 20
-1.25
 30
6.12
 70
    64
  0
VERTEX
  5
9823
100
AcDbEntity
  8
0
100
AcDbVertex
100
AcDbPolygonMeshVertex
 10
-3.0
 20
-1.25
 30
5.5
 70
    64
  0
VERTEX
  5
9824
100
AcDbEntity
  8
0
100
AcDbVertex
100
AcDbPolygonMeshVertex
 10
-3.0
 20
-2.44
 30
5.5
 70
    64
  0
VERTEX
  5
9825
100
AcDbEntity
  8
0
100
AcDbVertex
100
AcDbPolygonMeshVertex
 10
3.0
 20
-1.25
 30
6.12
 70
    64
  0
VERTEX
  5
9826
100
AcDbEntity
  8
0
100
AcDbVertex
100
AcDbPolygonMeshVertex
 10
3.0
 20
-1.25
 30
5.5
 70
    64
  0
VERTEX
  5
9827
100
AcDbEntity
  8
0
100
AcDbVertex
100
AcDbPolygonMeshVertex
 10
3.0
 20
-2.44
 30
5.5
 70
    64
  0
VERTEX
  5
9828
100
AcDbEntity
  8
0
100
AcDbVertex
100
AcDbPolygonMeshVertex
 10
3.0
 20
-1.25
 30
6.12
 70
    64
  0
VERTEX
  5
9829
100
AcDbEntity
  8
0
100
AcDbVertex
100
AcDbPolygonMeshVertex
 10
3.0
 20
-1.25
 30
6.12
 70
    64
  0
VERTEX
  5
982A
100
AcDbEntity
  8
0
100
AcDbVertex
100
AcDbPolygonMeshVertex
 10
3.0
 20
-2.44
 30
6.12
 70
    64
  0
VERTEX
  5
982B
100
AcDbEntity
  8
0
100
AcDbVertex
100
AcDbPolygonMeshVertex
 10
-3.0
 20
-1.25
 30
6.12
 70
    64
  0
VERTEX
  5
982C
100
AcDbEntity
  8
0
100
AcDbVertex
100
AcDbPolygonMeshVertex
 10
-3.0
 20
-1.25
 30
6.12
 70
    64
  0
VERTEX
  5
982D
100
AcDbEntity
  8
0
100
AcDbVertex
100
AcDbPolygonMeshVertex
 10
-3.0
 20
-2.44
 30
6.12
 70
    64
  0
SEQEND
  5
982E
100
AcDbEntity
  8
0
  0
POLYLINE
  5
982F
100
AcDbEntity
  8
0
100
AcDbPolygonMesh
 66
     1
 10
0.0
 20
0.0
 30
0.0
 70
    16
 71
     6
 72
     3
  0
VERTEX
  5
9830
100
AcDbEntity
  8
0
100
AcDbVertex
100
AcDbPolygonMeshVertex
 10
2.53
 20
-2.44
 30
6.74
 70
    64
  0
VERTEX
  5
9831
100
AcDbEntity
  8
0
100
AcDbVertex
100
AcDbPolygonMeshVertex
 10
2.53
 20
-2.44
 30
6.12
 70
    64
  0
VERTEX
  5
9832
100
AcDbEntity
  8
0
100
AcDbVertex
100
AcDbPolygonMeshVertex
 10
2.53
 20
-2.44
 30
6.12
 70
    64
  0
VERTEX
  5
9833
100
AcDbEntity
  8
0
100
AcDbVertex
100
AcDbPolygonMeshVertex
 10
1.53
 20
-2.44
 30
6.74
 70
    64
  0
VERTEX
  5
9834
100
AcDbEntity
  8
0
100
AcDbVertex
100
AcDbPolygonMeshVertex
 10
1.53
 20
-2.44
 30
6.12
 70
    64
  0
VERTEX
  5
9835
100
AcDbEntity
  8
0
100
AcDbVertex
100
AcDbPolygonMeshVertex
 10
1.53
 20
-2.44
 30
6.12
 70
    64
  0
VERTEX
  5
9836
100
AcDbEntity
  8
0
100
AcDbVertex
100
AcDbPolygonMeshVertex
 10
1.53
 20
-0.17
 30
6.74
 70
    64
  0
VERTEX
  5
9837
100
AcDbEntity
  8
0
100
AcDbVertex
100
AcDbPolygonMeshVertex
 10
1.53
 20
-0.17
 30
6.12
 70
    64
  0
VERTEX
  5
9838
100
AcDbEntity
  8
0
100
AcDbVertex
100
AcDbPolygonMeshVertex
 10
1.53
 20
-2.44
 30
6.12
 70
    64
  0
VERTEX
  5
9839
100
AcDbEntity
  8
0
100
AcDbVertex
100
AcDbPolygonMeshVertex
 10
2.53
 20
-0.17
 30
6.74
 70
    64
  0
VERTEX
  5
983A
100
AcDbEntity
  8
0
100
AcDbVertex
100
AcDbPolygonMeshVertex
 10
2.53
 20
-0.17
 30
6.12
 70
    64
  0
VERTEX
  5
983B
100
AcDbEntity
  8
0
100
AcDbVertex
100
AcDbPolygonMeshVertex
 10
2.53
 20
-2.44
 30
6.12
 70
    64
  0
VERTEX
  5
983C
100
AcDbEntity
  8
0
100
AcDbVertex
100
AcDbPolygonMeshVertex
 10
2.53
 20
-0.17
 30
6.74
 70
    64
  0
VERTEX
  5
983D
100
AcDbEntity
  8
0
100
AcDbVertex
100
AcDbPolygonMeshVertex
 10
2.53
 20
-0.17
 30
6.74
 70
    64
  0
VERTEX
  5
983E
100
AcDbEntity
  8
0
100
AcDbVertex
100
AcDbPolygonMeshVertex
 10
2.53
 20
-2.44
 30
6.74
 70
    64
  0
VERTEX
  5
983F
100
AcDbEntity
  8
0
100
AcDbVertex
100
AcDbPolygonMeshVertex
 10
1.53
 20
-0.17
 30
6.74
 70
    64
  0
VERTEX
  5
9840
100
AcDbEntity
  8
0
100
AcDbVertex
100
AcDbPolygonMeshVertex
 10
1.53
 20
-0.17
 30
6.74
 70
    64
  0
VERTEX
  5
9841
100
AcDbEntity
  8
0
100
AcDbVertex
100
AcDbPolygonMeshVertex
 10
1.53
 20
-2.44
 30
6.74
 70
    64
  0
SEQEND
  5
9842
100
AcDbEntity
  8
0
  0
POLYLINE
  5
9843
100
AcDbEntity
  8
0
100
AcDbPolygonMesh
 66
     1
 10
0.0
 20
0.0
 30
0.0
 70
    16
 71
     6
 72
     3
  0
VERTEX
  5
9844
100
AcDbEntity
  8
0
100
AcDbVertex
100
AcDbPolygonMeshVertex
 10
2.53
 20
-1.29
 30
7.62
 70
    64
  0
VERTEX
  5
9845
100
AcDbEntity
  8
0
100
AcDbVertex
100
AcDbPolygonMeshVertex
 10
2.53
 20
-1.29
 30
6.74
 70
    64
  0
VERTEX
  5
9846
100
AcDbEntity
  8
0
100
AcDbVertex
100
AcDbPolygonMeshVertex
 10
2.53
 20
-1.29
 30
6.74
 70
    64
  0
VERTEX
  5
9847
100
AcDbEntity
  8
0
100
AcDbVertex
100
AcDbPolygonMeshVertex
 10
1.53
 20
-1.29
 30
7.62
 70
    64
  0
VERTEX
  5
9848
100
AcDbEntity
  8
0
100
AcDbVertex
100
AcDbPolygonMeshVertex
 10
1.53
 20
-1.29
 30
6.74
 70
    64
  0
VERTEX
  5
9849
100
AcDbEntity
  8
0
100
AcDbVertex
100
AcDbPolygonMeshVertex
 10
1.53
 20
-1.29
 30
6.74
 70
    64
  0
VERTEX
  5
984A
100
AcDbEntity
  8
0
100
AcDbVertex
100
AcDbPolygonMeshVertex
 10
1.53
 20
-0.17
 30
7.62
 70
    64
  0
VERTEX
  5
984B
100
AcDbEntity
  8
0
100
AcDbVertex
100
AcDbPolygonMeshVertex
 10
1.53
 20
-0.17
 30
6.74
 70
    64
  0
VERTEX
  5
984C
100
AcDbEntity
  8
0
100
AcDbVertex
100
AcDbPolygonMeshVertex
 10
1.53
 20
-1.29
 30
6.74
 70
    64
  0
VERTEX
  5
984D
100
AcDbEntity
  8
0
100
AcDbVertex
100
AcDbPolygonMeshVertex
 10
2.53
 20
-0.17
 30
7.62
 70
    64
  0
VERTEX
  5
984E
100
AcDbEntity
  8
0
100
AcDbVertex
100
AcDbPolygonMeshVertex
 10
2.53
 20
-0.17
 30
6.74
 70
    64
  0
VERTEX
  5
984F
100
AcDbEntity
  8
0
100
AcDbVertex
100
AcDbPolygonMeshVertex
 10
2.53
 20
-1.29
 30
6.74
 70
    64
  0
VERTEX
  5
9850
100
AcDbEntity
  8
0
100
AcDbVertex
100
AcDbPolygonMeshVertex
 10
2.53
 20
-0.17
 30
7.62
 70
    64
  0
VERTEX
  5
9851
100
AcDbEntity
  8
0
100
AcDbVertex
100
AcDbPolygonMeshVertex
 10
2.53
 20
-0.17
 30
7.62
 70
    64
  0
VERTEX
  5
9852
100
AcDbEntity
  8
0
100
AcDbVertex
100
AcDbPolygonMeshVertex
 10
2.53
 20
-1.29
 30
7.62
 70
    64
  0
VERTEX
  5
9853
100
AcDbEntity
  8
0
100
AcDbVertex
100
AcDbPolygonMeshVertex
 10
1.53
 20
-0.17
 30
7.62
 70
    64
  0
VERTEX
  5
9854
100
AcDbEntity
  8
0
100
AcDbVertex
100
AcDbPolygonMeshVertex
 10
1.53
 20
-0.17
 30
7.62
 70
    64
  0
VERTEX
  5
9855
100
AcDbEntity
  8
0
100
AcDbVertex
100
AcDbPolygonMeshVertex
 10
1.53
 20
-1.29
 30
7.62
 70
    64
  0
SEQEND
  5
9856
100
AcDbEntity
  8
0
  0
CIRCLE
  5
9857
100
AcDbEntity
  8
0
  6
BYBLOCK
100
AcDbCircle
 10
0.0
 20
-0.73
 30
7.62
 40
0.375
  0
CIRCLE
  5
9858
100
AcDbEntity
  8
0
  6
BYBLOCK
100
AcDbCircle
 10
0.0
 20
-0.73
 30
7.62
 40
0.3125
  0
POLYLINE
  5
9859
100
AcDbEntity
  8
0
100
AcDbPolygonMesh
 66
     1
 10
0.0
 20
0.0
 30
0.0
 70
    16
 71
     6
 72
     3
  0
VERTEX
  5
985A
100
AcDbEntity
  8
0
100
AcDbVertex
100
AcDbPolygonMeshVertex
 10
0.5
 20
-1.29
 30
7.62
 70
    64
  0
VERTEX
  5
985B
100
AcDbEntity
  8
0
100
AcDbVertex
100
AcDbPolygonMeshVertex
 10
0.5
 20
-1.29
 30
6.74
 70
    64
  0
VERTEX
  5
985C
100
AcDbEntity
  8
0
100
AcDbVertex
100
AcDbPolygonMeshVertex
 10
0.5
 20
-1.29
 30
6.74
 70
    64
  0
VERTEX
  5
985D
100
AcDbEntity
  8
0
100
AcDbVertex
100
AcDbPolygonMeshVertex
 10
-0.5
 20
-1.29
 30
7.62
 70
    64
  0
VERTEX
  5
985E
100
AcDbEntity
  8
0
100
AcDbVertex
100
AcDbPolygonMeshVertex
 10
-0.5
 20
-1.29
 30
6.74
 70
    64
  0
VERTEX
  5
985F
100
AcDbEntity
  8
0
100
AcDbVertex
100
AcDbPolygonMeshVertex
 10
-0.5
 20
-1.29
 30
6.74
 70
    64
  0
VERTEX
  5
9860
100
AcDbEntity
  8
0
100
AcDbVertex
100
AcDbPolygonMeshVertex
 10
-0.5
 20
-0.17
 30
7.62
 70
    64
  0
VERTEX
  5
9861
100
AcDbEntity
  8
0
100
AcDbVertex
100
AcDbPolygonMeshVertex
 10
-0.5
 20
-0.17
 30
6.74
 70
    64
  0
VERTEX
  5
9862
100
AcDbEntity
  8
0
100
AcDbVertex
100
AcDbPolygonMeshVertex
 10
-0.5
 20
-1.29
 30
6.74
 70
    64
  0
VERTEX
  5
9863
100
AcDbEntity
  8
0
100
AcDbVertex
100
AcDbPolygonMeshVertex
 10
0.5
 20
-0.17
 30
7.62
 70
    64
  0
VERTEX
  5
9864
100
AcDbEntity
  8
0
100
AcDbVertex
100
AcDbPolygonMeshVertex
 10
0.5
 20
-0.17
 30
6.74
 70
    64
  0
VERTEX
  5
9865
100
AcDbEntity
  8
0
100
AcDbVertex
100
AcDbPolygonMeshVertex
 10
0.5
 20
-1.29
 30
6.74
 70
    64
  0
VERTEX
  5
9866
100
AcDbEntity
  8
0
100
AcDbVertex
100
AcDbPolygonMeshVertex
 10
0.5
 20
-0.17
 30
7.62
 70
    64
  0
VERTEX
  5
9867
100
AcDbEntity
  8
0
100
AcDbVertex
100
AcDbPolygonMeshVertex
 10
0.5
 20
-0.17
 30
7.62
 70
    64
  0
VERTEX
  5
9868
100
AcDbEntity
  8
0
100
AcDbVertex
100
AcDbPolygonMeshVertex
 10
0.5
 20
-1.29
 30
7.62
 70
    64
  0
VERTEX
  5
9869
100
AcDbEntity
  8
0
100
AcDbVertex
100
AcDbPolygonMeshVertex
 10
-0.5
 20
-0.17
 30
7.62
 70
    64
  0
VERTEX
  5
986A
100
AcDbEntity
  8
0
100
AcDbVertex
100
AcDbPolygonMeshVertex
 10
-0.5
 20
-0.17
 30
7.62
 70
    64
  0
VERTEX
  5
986B
100
AcDbEntity
  8
0
100
AcDbVertex
100
AcDbPolygonMeshVertex
 10
-0.5
 20
-1.29
 30
7.62
 70
    64
  0
SEQEND
  5
986C
100
AcDbEntity
  8
0
  0
POLYLINE
  5
986D
100
AcDbEntity
  8
0
100
AcDbPolygonMesh
 66
     1
 10
0.0
 20
0.0
 30
0.0
 70
    16
 71
     6
 72
     3
  0
VERTEX
  5
986E
100
AcDbEntity
  8
0
100
AcDbVertex
100
AcDbPolygonMeshVertex
 10
0.5
 20
-2.44
 30
6.74
 70
    64
  0
VERTEX
  5
986F
100
AcDbEntity
  8
0
100
AcDbVertex
100
AcDbPolygonMeshVertex
 10
0.5
 20
-2.44
 30
6.12
 70
    64
  0
VERTEX
  5
9870
100
AcDbEntity
  8
0
100
AcDbVertex
100
AcDbPolygonMeshVertex
 10
0.5
 20
-2.44
 30
6.12
 70
    64
  0
VERTEX
  5
9871
100
AcDbEntity
  8
0
100
AcDbVertex
100
AcDbPolygonMeshVertex
 10
-0.5
 20
-2.44
 30
6.74
 70
    64
  0
VERTEX
  5
9872
100
AcDbEntity
  8
0
100
AcDbVertex
100
AcDbPolygonMeshVertex
 10
-0.5
 20
-2.44
 30
6.12
 70
    64
  0
VERTEX
  5
9873
100
AcDbEntity
  8
0
100
AcDbVertex
100
AcDbPolygonMeshVertex
 10
-0.5
 20
-2.44
 30
6.12
 70
    64
  0
VERTEX
  5
9874
100
AcDbEntity
  8
0
100
AcDbVertex
100
AcDbPolygonMeshVertex
 10
-0.5
 20
-0.17
 30
6.74
 70
    64
  0
VERTEX
  5
9875
100
AcDbEntity
  8
0
100
AcDbVertex
100
AcDbPolygonMeshVertex
 10
-0.5
 20
-0.17
 30
6.12
 70
    64
  0
VERTEX
  5
9876
100
AcDbEntity
  8
0
100
AcDbVertex
100
AcDbPolygonMeshVertex
 10
-0.5
 20
-2.44
 30
6.12
 70
    64
  0
VERTEX
  5
9877
100
AcDbEntity
  8
0
100
AcDbVertex
100
AcDbPolygonMeshVertex
 10
0.5
 20
-0.17
 30
6.74
 70
    64
  0
VERTEX
  5
9878
100
AcDbEntity
  8
0
100
AcDbVertex
100
AcDbPolygonMeshVertex
 10
0.5
 20
-0.17
 30
6.12
 70
    64
  0
VERTEX
  5
9879
100
AcDbEntity
  8
0
100
AcDbVertex
100
AcDbPolygonMeshVertex
 10
0.5
 20
-2.44
 30
6.12
 70
    64
  0
VERTEX
  5
987A
100
AcDbEntity
  8
0
100
AcDbVertex
100
AcDbPolygonMeshVertex
 10
0.5
 20
-0.17
 30
6.74
 70
    64
  0
VERTEX
  5
987B
100
AcDbEntity
  8
0
100
AcDbVertex
100
AcDbPolygonMeshVertex
 10
0.5
 20
-0.17
 30
6.74
 70
    64
  0
VERTEX
  5
987C
100
AcDbEntity
  8
0
100
AcDbVertex
100
AcDbPolygonMeshVertex
 10
0.5
 20
-2.44
 30
6.74
 70
    64
  0
VERTEX
  5
987D
100
AcDbEntity
  8
0
100
AcDbVertex
100
AcDbPolygonMeshVertex
 10
-0.5
 20
-0.17
 30
6.74
 70
    64
  0
VERTEX
  5
987E
100
AcDbEntity
  8
0
100
AcDbVertex
100
AcDbPolygonMeshVertex
 10
-0.5
 20
-0.17
 30
6.74
 70
    64
  0
VERTEX
  5
987F
100
AcDbEntity
  8
0
100
AcDbVertex
100
AcDbPolygonMeshVertex
 10
-0.5
 20
-2.44
 30
6.74
 70
    64
  0
SEQEND
  5
9880
100
AcDbEntity
  8
0
  0
CIRCLE
  5
9881
100
AcDbEntity
  8
0
  6
BYBLOCK
100
AcDbCircle
 10
-2.03
 20
-0.73
 30
7.62
 40
0.375
  0
CIRCLE
  5
9882
100
AcDbEntity
  8
0
  6
BYBLOCK
100
AcDbCircle
 10
-2.03
 20
-0.73
 30
7.62
 40
0.3125
  0
POLYLINE
  5
9883
100
AcDbEntity
  8
0
100
AcDbPolygonMesh
 66
     1
 10
0.0
 20
0.0
 30
0.0
 70
    16
 71
     6
 72
     3
  0
VERTEX
  5
9884
100
AcDbEntity
  8
0
100
AcDbVertex
100
AcDbPolygonMeshVertex
 10
-1.53
 20
-1.29
 30
7.62
 70
    64
  0
VERTEX
  5
9885
100
AcDbEntity
  8
0
100
AcDbVertex
100
AcDbPolygonMeshVertex
 10
-1.53
 20
-1.29
 30
6.74
 70
    64
  0
VERTEX
  5
9886
100
AcDbEntity
  8
0
100
AcDbVertex
100
AcDbPolygonMeshVertex
 10
-1.53
 20
-1.29
 30
6.74
 70
    64
  0
VERTEX
  5
9887
100
AcDbEntity
  8
0
100
AcDbVertex
100
AcDbPolygonMeshVertex
 10
-2.53
 20
-1.29
 30
7.62
 70
    64
  0
VERTEX
  5
9888
100
AcDbEntity
  8
0
100
AcDbVertex
100
AcDbPolygonMeshVertex
 10
-2.53
 20
-1.29
 30
6.74
 70
    64
  0
VERTEX
  5
9889
100
AcDbEntity
  8
0
100
AcDbVertex
100
AcDbPolygonMeshVertex
 10
-2.53
 20
-1.29
 30
6.74
 70
    64
  0
VERTEX
  5
988A
100
AcDbEntity
  8
0
100
AcDbVertex
100
AcDbPolygonMeshVertex
 10
-2.53
 20
-0.17
 30
7.62
 70
    64
  0
VERTEX
  5
988B
100
AcDbEntity
  8
0
100
AcDbVertex
100
AcDbPolygonMeshVertex
 10
-2.53
 20
-0.17
 30
6.74
 70
    64
  0
VERTEX
  5
988C
100
AcDbEntity
  8
0
100
AcDbVertex
100
AcDbPolygonMeshVertex
 10
-2.53
 20
-1.29
 30
6.74
 70
    64
  0
VERTEX
  5
988D
100
AcDbEntity
  8
0
100
AcDbVertex
100
AcDbPolygonMeshVertex
 10
-1.53
 20
-0.17
 30
7.62
 70
    64
  0
VERTEX
  5
988E
100
AcDbEntity
  8
0
100
AcDbVertex
100
AcDbPolygonMeshVertex
 10
-1.53
 20
-0.17
 30
6.74
 70
    64
  0
VERTEX
  5
988F
100
AcDbEntity
  8
0
100
AcDbVertex
100
AcDbPolygonMeshVertex
 10
-1.53
 20
-1.29
 30
6.74
 70
    64
  0
VERTEX
  5
9890
100
AcDbEntity
  8
0
100
AcDbVertex
100
AcDbPolygonMeshVertex
 10
-1.53
 20
-0.17
 30
7.62
 70
    64
  0
VERTEX
  5
9891
100
AcDbEntity
  8
0
100
AcDbVertex
100
AcDbPolygonMeshVertex
 10
-1.53
 20
-0.17
 30
7.62
 70
    64
  0
VERTEX
  5
9892
100
AcDbEntity
  8
0
100
AcDbVertex
100
AcDbPolygonMeshVertex
 10
-1.53
 20
-1.29
 30
7.62
 70
    64
  0
VERTEX
  5
9893
100
AcDbEntity
  8
0
100
AcDbVertex
100
AcDbPolygonMeshVertex
 10
-2.53
 20
-0.17
 30
7.62
 70
    64
  0
VERTEX
  5
9894
100
AcDbEntity
  8
0
100
AcDbVertex
100
AcDbPolygonMeshVertex
 10
-2.53
 20
-0.17
 30
7.62
 70
    64
  0
VERTEX
  5
9895
100
AcDbEntity
  8
0
100
AcDbVertex
100
AcDbPolygonMeshVertex
 10
-2.53
 20
-1.29
 30
7.62
 70
    64
  0
SEQEND
  5
9896
100
AcDbEntity
  8
0
  0
POLYLINE
  5
9897
100
AcDbEntity
  8
0
100
AcDbPolygonMesh
 66
     1
 10
0.0
 20
0.0
 30
0.0
 70
    16
 71
     6
 72
     3
  0
VERTEX
  5
9898
100
AcDbEntity
  8
0
100
AcDbVertex
100
AcDbPolygonMeshVertex
 10
-1.53
 20
-2.44
 30
6.74
 70
    64
  0
VERTEX
  5
9899
100
AcDbEntity
  8
0
100
AcDbVertex
100
AcDbPolygonMeshVertex
 10
-1.53
 20
-2.44
 30
6.12
 70
    64
  0
VERTEX
  5
989A
100
AcDbEntity
  8
0
100
AcDbVertex
100
AcDbPolygonMeshVertex
 10
-1.53
 20
-2.44
 30
6.12
 70
    64
  0
VERTEX
  5
989B
100
AcDbEntity
  8
0
100
AcDbVertex
100
AcDbPolygonMeshVertex
 10
-2.53
 20
-2.44
 30
6.74
 70
    64
  0
VERTEX
  5
989C
100
AcDbEntity
  8
0
100
AcDbVertex
100
AcDbPolygonMeshVertex
 10
-2.53
 20
-2.44
 30
6.12
 70
    64
  0
VERTEX
  5
989D
100
AcDbEntity
  8
0
100
AcDbVertex
100
AcDbPolygonMeshVertex
 10
-2.53
 20
-2.44
 30
6.12
 70
    64
  0
VERTEX
  5
989E
100
AcDbEntity
  8
0
100
AcDbVertex
100
AcDbPolygonMeshVertex
 10
-2.53
 20
-0.17
 30
6.74
 70
    64
  0
VERTEX
  5
989F
100
AcDbEntity
  8
0
100
AcDbVertex
100
AcDbPolygonMeshVertex
 10
-2.53
 20
-0.17
 30
6.12
 70
    64
  0
VERTEX
  5
98A0
100
AcDbEntity
  8
0
100
AcDbVertex
100
AcDbPolygonMeshVertex
 10
-2.53
 20
-2.44
 30
6.12
 70
    64
  0
VERTEX
  5
98A1
100
AcDbEntity
  8
0
100
AcDbVertex
100
AcDbPolygonMeshVertex
 10
-1.53
 20
-0.17
 30
6.74
 70
    64
  0
VERTEX
  5
98A2
100
AcDbEntity
  8
0
100
AcDbVertex
100
AcDbPolygonMeshVertex
 10
-1.53
 20
-0.17
 30
6.12
 70
    64
  0
VERTEX
  5
98A3
100
AcDbEntity
  8
0
100
AcDbVertex
100
AcDbPolygonMeshVertex
 10
-1.53
 20
-2.44
 30
6.12
 70
    64
  0
VERTEX
  5
98A4
100
AcDbEntity
  8
0
100
AcDbVertex
100
AcDbPolygonMeshVertex
 10
-1.53
 20
-0.17
 30
6.74
 70
    64
  0
VERTEX
  5
98A5
100
AcDbEntity
  8
0
100
AcDbVertex
100
AcDbPolygonMeshVertex
 10
-1.53
 20
-0.17
 30
6.74
 70
    64
  0
VERTEX
  5
98A6
100
AcDbEntity
  8
0
100
AcDbVertex
100
AcDbPolygonMeshVertex
 10
-1.53
 20
-2.44
 30
6.74
 70
    64
  0
VERTEX
  5
98A7
100
AcDbEntity
  8
0
100
AcDbVertex
100
AcDbPolygonMeshVertex
 10
-2.53
 20
-0.17
 30
6.74
 70
    64
  0
VERTEX
  5
98A8
100
AcDbEntity
  8
0
100
AcDbVertex
100
AcDbPolygonMeshVertex
 10
-2.53
 20
-0.17
 30
6.74
 70
    64
  0
VERTEX
  5
98A9
100
AcDbEntity
  8
0
100
AcDbVertex
100
AcDbPolygonMeshVertex
 10
-2.53
 20
-2.44
 30
6.74
 70
    64
  0
SEQEND
  5
98AA
100
AcDbEntity
  8
0
  0
POLYLINE
  5
98AB
100
AcDbEntity
  8
0
100
AcDbPolygonMesh
 66
     1
 10
0.0
 20
0.0
 30
0.0
 70
    16
 71
     6
 72
     3
  0
VERTEX
  5
98AC
100
AcDbEntity
  8
0
100
AcDbVertex
100
AcDbPolygonMeshVertex
 10
1.0
 20
-7.13
 30
6.18
 70
    64
  0
VERTEX
  5
98AD
100
AcDbEntity
  8
0
100
AcDbVertex
100
AcDbPolygonMeshVertex
 10
1.0
 20
-7.13
 30
5.8
 70
    64
  0
VERTEX
  5
98AE
100
AcDbEntity
  8
0
100
AcDbVertex
100
AcDbPolygonMeshVertex
 10
1.0
 20
-7.13
 30
5.8
 70
    64
  0
VERTEX
  5
98AF
100
AcDbEntity
  8
0
100
AcDbVertex
100
AcDbPolygonMeshVertex
 10
-1.0
 20
-7.13
 30
6.18
 70
    64
  0
VERTEX
  5
98B0
100
AcDbEntity
  8
0
100
AcDbVertex
100
AcDbPolygonMeshVertex
 10
-1.0
 20
-7.13
 30
5.8
 70
    64
  0
VERTEX
  5
98B1
100
AcDbEntity
  8
0
100
AcDbVertex
100
AcDbPolygonMeshVertex
 10
-1.0
 20
-7.13
 30
5.8
 70
    64
  0
VERTEX
  5
98B2
100
AcDbEntity
  8
0
100
AcDbVertex
100
AcDbPolygonMeshVertex
 10
-1.0
 20
-6.13
 30
6.18
 70
    64
  0
VERTEX
  5
98B3
100
AcDbEntity
  8
0
100
AcDbVertex
100
AcDbPolygonMeshVertex
 10
-1.0
 20
-6.13
 30
5.8
 70
    64
  0
VERTEX
  5
98B4
100
AcDbEntity
  8
0
100
AcDbVertex
100
AcDbPolygonMeshVertex
 10
-1.0
 20
-7.13
 30
5.8
 70
    64
  0
VERTEX
  5
98B5
100
AcDbEntity
  8
0
100
AcDbVertex
100
AcDbPolygonMeshVertex
 10
1.0
 20
-6.13
 30
6.18
 70
    64
  0
VERTEX
  5
98B6
100
AcDbEntity
  8
0
100
AcDbVertex
100
AcDbPolygonMeshVertex
 10
1.0
 20
-6.13
 30
5.8
 70
    64
  0
VERTEX
  5
98B7
100
AcDbEntity
  8
0
100
AcDbVertex
100
AcDbPolygonMeshVertex
 10
1.0
 20
-7.13
 30
5.8
 70
    64
  0
VERTEX
  5
98B8
100
AcDbEntity
  8
0
100
AcDbVertex
100
AcDbPolygonMeshVertex
 10
1.0
 20
-6.13
 30
6.18
 70
    64
  0
VERTEX
  5
98B9
100
AcDbEntity
  8
0
100
AcDbVertex
100
AcDbPolygonMeshVertex
 10
1.0
 20
-6.13
 30
6.18
 70
    64
  0
VERTEX
  5
98BA
100
AcDbEntity
  8
0
100
AcDbVertex
100
AcDbPolygonMeshVertex
 10
1.0
 20
-7.13
 30
6.18
 70
    64
  0
VERTEX
  5
98BB
100
AcDbEntity
  8
0
100
AcDbVertex
100
AcDbPolygonMeshVertex
 10
-1.0
 20
-6.13
 30
6.18
 70
    64
  0
VERTEX
  5
98BC
100
AcDbEntity
  8
0
100
AcDbVertex
100
AcDbPolygonMeshVertex
 10
-1.0
 20
-6.13
 30
6.18
 70
    64
  0
VERTEX
  5
98BD
100
AcDbEntity
  8
0
100
AcDbVertex
100
AcDbPolygonMeshVertex
 10
-1.0
 20
-7.13
 30
6.18
 70
    64
  0
SEQEND
  5
98BE
100
AcDbEntity
  8
0
  0
POLYLINE
  5
98BF
100
AcDbEntity
  8
0
100
AcDbPolygonMesh
 66
     1
 10
0.0
 20
0.0
 30
0.0
 70
    16
 71
     6
 72
     3
  0
VERTEX
  5
98C0
100
AcDbEntity
  8
0
100
AcDbVertex
100
AcDbPolygonMeshVertex
 10
-0.31
 20
-6.67
 30
6.56
 70
    64
  0
VERTEX
  5
98C1
100
AcDbEntity
  8
0
100
AcDbVertex
100
AcDbPolygonMeshVertex
 10
-0.31
 20
-6.67
 30
6.18
 70
    64
  0
VERTEX
  5
98C2
100
AcDbEntity
  8
0
100
AcDbVertex
100
AcDbPolygonMeshVertex
 10
-0.31
 20
-6.67
 30
6.18
 70
    64
  0
VERTEX
  5
98C3
100
AcDbEntity
  8
0
100
AcDbVertex
100
AcDbPolygonMeshVertex
 10
-0.69
 20
-6.67
 30
6.56
 70
    64
  0
VERTEX
  5
98C4
100
AcDbEntity
  8
0
100
AcDbVertex
100
AcDbPolygonMeshVertex
 10
-0.69
 20
-6.67
 30
6.18
 70
    64
  0
VERTEX
  5
98C5
100
AcDbEntity
  8
0
100
AcDbVertex
100
AcDbPolygonMeshVertex
 10
-0.69
 20
-6.67
 30
6.18
 70
    64
  0
VERTEX
  5
98C6
100
AcDbEntity
  8
0
100
AcDbVertex
100
AcDbPolygonMeshVertex
 10
-0.69
 20
-6.23
 30
6.56
 70
    64
  0
VERTEX
  5
98C7
100
AcDbEntity
  8
0
100
AcDbVertex
100
AcDbPolygonMeshVertex
 10
-0.69
 20
-6.23
 30
6.18
 70
    64
  0
VERTEX
  5
98C8
100
AcDbEntity
  8
0
100
AcDbVertex
100
AcDbPolygonMeshVertex
 10
-0.69
 20
-6.67
 30
6.18
 70
    64
  0
VERTEX
  5
98C9
100
AcDbEntity
  8
0
100
AcDbVertex
100
AcDbPolygonMeshVertex
 10
-0.31
 20
-6.23
 30
6.56
 70
    64
  0
VERTEX
  5
98CA
100
AcDbEntity
  8
0
100
AcDbVertex
100
AcDbPolygonMeshVertex
 10
-0.31
 20
-6.23
 30
6.18
 70
    64
  0
VERTEX
  5
98CB
100
AcDbEntity
  8
0
100
AcDbVertex
100
AcDbPolygonMeshVertex
 10
-0.31
 20
-6.67
 30
6.18
 70
    64
  0
VERTEX
  5
98CC
100
AcDbEntity
  8
0
100
AcDbVertex
100
AcDbPolygonMeshVertex
 10
-0.31
 20
-6.23
 30
6.56
 70
    64
  0
VERTEX
  5
98CD
100
AcDbEntity
  8
0
100
AcDbVertex
100
AcDbPolygonMeshVertex
 10
-0.31
 20
-6.23
 30
6.56
 70
    64
  0
VERTEX
  5
98CE
100
AcDbEntity
  8
0
100
AcDbVertex
100
AcDbPolygonMeshVertex
 10
-0.31
 20
-6.67
 30
6.56
 70
    64
  0
VERTEX
  5
98CF
100
AcDbEntity
  8
0
100
AcDbVertex
100
AcDbPolygonMeshVertex
 10
-0.69
 20
-6.23
 30
6.56
 70
    64
  0
VERTEX
  5
98D0
100
AcDbEntity
  8
0
100
AcDbVertex
100
AcDbPolygonMeshVertex
 10
-0.69
 20
-6.23
 30
6.56
 70
    64
  0
VERTEX
  5
98D1
100
AcDbEntity
  8
0
100
AcDbVertex
100
AcDbPolygonMeshVertex
 10
-0.69
 20
-6.67
 30
6.56
 70
    64
  0
SEQEND
  5
98D2
100
AcDbEntity
  8
0
  0
POLYLINE
  5
98D3
100
AcDbEntity
  8
0
100
AcDbPolygonMesh
 66
     1
 10
0.0
 20
0.0
 30
0.0
 70
    16
 71
     6
 72
     3
  0
VERTEX
  5
98D4
100
AcDbEntity
  8
0
100
AcDbVertex
100
AcDbPolygonMeshVertex
 10
0.69
 20
-6.67
 30
6.56
 70
    64
  0
VERTEX
  5
98D5
100
AcDbEntity
  8
0
100
AcDbVertex
100
AcDbPolygonMeshVertex
 10
0.69
 20
-6.67
 30
6.18
 70
    64
  0
VERTEX
  5
98D6
100
AcDbEntity
  8
0
100
AcDbVertex
100
AcDbPolygonMeshVertex
 10
0.69
 20
-6.67
 30
6.18
 70
    64
  0
VERTEX
  5
98D7
100
AcDbEntity
  8
0
100
AcDbVertex
100
AcDbPolygonMeshVertex
 10
0.31
 20
-6.67
 30
6.56
 70
    64
  0
VERTEX
  5
98D8
100
AcDbEntity
  8
0
100
AcDbVertex
100
AcDbPolygonMeshVertex
 10
0.31
 20
-6.67
 30
6.18
 70
    64
  0
VERTEX
  5
98D9
100
AcDbEntity
  8
0
100
AcDbVertex
100
AcDbPolygonMeshVertex
 10
0.31
 20
-6.67
 30
6.18
 70
    64
  0
VERTEX
  5
98DA
100
AcDbEntity
  8
0
100
AcDbVertex
100
AcDbPolygonMeshVertex
 10
0.31
 20
-6.23
 30
6.56
 70
    64
  0
VERTEX
  5
98DB
100
AcDbEntity
  8
0
100
AcDbVertex
100
AcDbPolygonMeshVertex
 10
0.31
 20
-6.23
 30
6.18
 70
    64
  0
VERTEX
  5
98DC
100
AcDbEntity
  8
0
100
AcDbVertex
100
AcDbPolygonMeshVertex
 10
0.31
 20
-6.67
 30
6.18
 70
    64
  0
VERTEX
  5
98DD
100
AcDbEntity
  8
0
100
AcDbVertex
100
AcDbPolygonMeshVertex
 10
0.69
 20
-6.23
 30
6.56
 70
    64
  0
VERTEX
  5
98DE
100
AcDbEntity
  8
0
100
AcDbVertex
100
AcDbPolygonMeshVertex
 10
0.69
 20
-6.23
 30
6.18
 70
    64
  0
VERTEX
  5
98DF
100
AcDbEntity
  8
0
100
AcDbVertex
100
AcDbPolygonMeshVertex
 10
0.69
 20
-6.67
 30
6.18
 70
    64
  0
VERTEX
  5
98E0
100
AcDbEntity
  8
0
100
AcDbVertex
100
AcDbPolygonMeshVertex
 10
0.69
 20
-6.23
 30
6.56
 70
    64
  0
VERTEX
  5
98E1
100
AcDbEntity
  8
0
100
AcDbVertex
100
AcDbPolygonMeshVertex
 10
0.69
 20
-6.23
 30
6.56
 70
    64
  0
VERTEX
  5
98E2
100
AcDbEntity
  8
0
100
AcDbVertex
100
AcDbPolygonMeshVertex
 10
0.69
 20
-6.67
 30
6.56
 70
    64
  0
VERTEX
  5
98E3
100
AcDbEntity
  8
0
100
AcDbVertex
100
AcDbPolygonMeshVertex
 10
0.31
 20
-6.23
 30
6.56
 70
    64
  0
VERTEX
  5
98E4
100
AcDbEntity
  8
0
100
AcDbVertex
100
AcDbPolygonMeshVertex
 10
0.31
 20
-6.23
 30
6.56
 70
    64
  0
VERTEX
  5
98E5
100
AcDbEntity
  8
0
100
AcDbVertex
100
AcDbPolygonMeshVertex
 10
0.31
 20
-6.67
 30
6.56
 70
    64
  0
SEQEND
  5
98E6
100
AcDbEntity
  8
0
  0
POLYLINE
  5
98E7
100
AcDbEntity
  8
0
100
AcDbPolygonMesh
 66
     1
 10
0.0
 20
0.0
 30
0.0
 70
    16
 71
     6
 72
     3
  0
VERTEX
  5
98E8
100
AcDbEntity
  8
0
100
AcDbVertex
100
AcDbPolygonMeshVertex
 10
-1.123248
 20
-11.728559
 30
4.62
 70
    64
  0
VERTEX
  5
98E9
100
AcDbEntity
  8
0
100
AcDbVertex
100
AcDbPolygonMeshVertex
 10
-1.123248
 20
-11.728559
 30
3.74
 70
    64
  0
VERTEX
  5
98EA
100
AcDbEntity
  8
0
100
AcDbVertex
100
AcDbPolygonMeshVertex
 10
-1.123248
 20
-11.728559
 30
3.74
 70
    64
  0
VERTEX
  5
98EB
100
AcDbEntity
  8
0
100
AcDbVertex
100
AcDbPolygonMeshVertex
 10
-2.123248
 20
-11.728559
 30
4.62
 70
    64
  0
VERTEX
  5
98EC
100
AcDbEntity
  8
0
100
AcDbVertex
100
AcDbPolygonMeshVertex
 10
-2.123248
 20
-11.728559
 30
3.74
 70
    64
  0
VERTEX
  5
98ED
100
AcDbEntity
  8
0
100
AcDbVertex
100
AcDbPolygonMeshVertex
 10
-2.123248
 20
-11.728559
 30
3.74
 70
    64
  0
VERTEX
  5
98EE
100
AcDbEntity
  8
0
100
AcDbVertex
100
AcDbPolygonMeshVertex
 10
-2.123248
 20
-10.60856
 30
4.62
 70
    64
  0
VERTEX
  5
98EF
100
AcDbEntity
  8
0
100
AcDbVertex
100
AcDbPolygonMeshVertex
 10
-2.123248
 20
-10.60856
 30
3.74
 70
    64
  0
VERTEX
  5
98F0
100
AcDbEntity
  8
0
100
AcDbVertex
100
AcDbPolygonMeshVertex
 10
-2.123248
 20
-11.728559
 30
3.74
 70
    64
  0
VERTEX
  5
98F1
100
AcDbEntity
  8
0
100
AcDbVertex
100
AcDbPolygonMeshVertex
 10
-1.123248
 20
-10.60856
 30
4.62
 70
    64
  0
VERTEX
  5
98F2
100
AcDbEntity
  8
0
100
AcDbVertex
100
AcDbPolygonMeshVertex
 10
-1.123248
 20
-10.60856
 30
3.74
 70
    64
  0
VERTEX
  5
98F3
100
AcDbEntity
  8
0
100
AcDbVertex
100
AcDbPolygonMeshVertex
 10
-1.123248
 20
-11.728559
 30
3.74
 70
    64
  0
VERTEX
  5
98F4
100
AcDbEntity
  8
0
100
AcDbVertex
100
AcDbPolygonMeshVertex
 10
-1.123248
 20
-10.60856
 30
4.62
 70
    64
  0
VERTEX
  5
98F5
100
AcDbEntity
  8
0
100
AcDbVertex
100
AcDbPolygonMeshVertex
 10
-1.123248
 20
-10.60856
 30
4.62
 70
    64
  0
VERTEX
  5
98F6
100
AcDbEntity
  8
0
100
AcDbVertex
100
AcDbPolygonMeshVertex
 10
-1.123248
 20
-11.728559
 30
4.62
 70
    64
  0
VERTEX
  5
98F7
100
AcDbEntity
  8
0
100
AcDbVertex
100
AcDbPolygonMeshVertex
 10
-2.123248
 20
-10.60856
 30
4.62
 70
    64
  0
VERTEX
  5
98F8
100
AcDbEntity
  8
0
100
AcDbVertex
100
AcDbPolygonMeshVertex
 10
-2.123248
 20
-10.60856
 30
4.62
 70
    64
  0
VERTEX
  5
98F9
100
AcDbEntity
  8
0
100
AcDbVertex
100
AcDbPolygonMeshVertex
 10
-2.123248
 20
-11.728559
 30
4.62
 70
    64
  0
SEQEND
  5
98FA
100
AcDbEntity
  8
0
  0
CIRCLE
  5
98FB
100
AcDbEntity
  8
0
100
AcDbCircle
 10
-1.623248
 20
-11.16856
 30
4.62
 40
0.375
  0
CIRCLE
  5
98FC
100
AcDbEntity
  8
0
100
AcDbCircle
 10
-1.623248
 20
-11.16856
 30
4.62
 40
0.3125
  0
POLYLINE
  5
98FD
100
AcDbEntity
  8
0
100
AcDbPolygonMesh
 66
     1
 10
0.0
 20
0.0
 30
0.0
 70
    16
 71
     6
 72
     3
  0
VERTEX
  5
98FE
100
AcDbEntity
  8
0
100
AcDbVertex
100
AcDbPolygonMeshVertex
 10
0.501752
 20
-11.728559
 30
4.62
 70
    64
  0
VERTEX
  5
98FF
100
AcDbEntity
  8
0
100
AcDbVertex
100
AcDbPolygonMeshVertex
 10
0.501752
 20
-11.728559
 30
3.74
 70
    64
  0
VERTEX
  5
9900
100
AcDbEntity
  8
0
100
AcDbVertex
100
AcDbPolygonMeshVertex
 10
0.501752
 20
-11.728559
 30
3.74
 70
    64
  0
VERTEX
  5
9901
100
AcDbEntity
  8
0
100
AcDbVertex
100
AcDbPolygonMeshVertex
 10
-0.498248
 20
-11.728559
 30
4.62
 70
    64
  0
VERTEX
  5
9902
100
AcDbEntity
  8
0
100
AcDbVertex
100
AcDbPolygonMeshVertex
 10
-0.498248
 20
-11.728559
 30
3.74
 70
    64
  0
VERTEX
  5
9903
100
AcDbEntity
  8
0
100
AcDbVertex
100
AcDbPolygonMeshVertex
 10
-0.498248
 20
-11.728559
 30
3.74
 70
    64
  0
VERTEX
  5
9904
100
AcDbEntity
  8
0
100
AcDbVertex
100
AcDbPolygonMeshVertex
 10
-0.498248
 20
-10.60856
 30
4.62
 70
    64
  0
VERTEX
  5
9905
100
AcDbEntity
  8
0
100
AcDbVertex
100
AcDbPolygonMeshVertex
 10
-0.498248
 20
-10.60856
 30
3.74
 70
    64
  0
VERTEX
  5
9906
100
AcDbEntity
  8
0
100
AcDbVertex
100
AcDbPolygonMeshVertex
 10
-0.498248
 20
-11.728559
 30
3.74
 70
    64
  0
VERTEX
  5
9907
100
AcDbEntity
  8
0
100
AcDbVertex
100
AcDbPolygonMeshVertex
 10
0.501752
 20
-10.60856
 30
4.62
 70
    64
  0
VERTEX
  5
9908
100
AcDbEntity
  8
0
100
AcDbVertex
100
AcDbPolygonMeshVertex
 10
0.501752
 20
-10.60856
 30
3.74
 70
    64
  0
VERTEX
  5
9909
100
AcDbEntity
  8
0
100
AcDbVertex
100
AcDbPolygonMeshVertex
 10
0.501752
 20
-11.728559
 30
3.74
 70
    64
  0
VERTEX
  5
990A
100
AcDbEntity
  8
0
100
AcDbVertex
100
AcDbPolygonMeshVertex
 10
0.501752
 20
-10.60856
 30
4.62
 70
    64
  0
VERTEX
  5
990B
100
AcDbEntity
  8
0
100
AcDbVertex
100
AcDbPolygonMeshVertex
 10
0.501752
 20
-10.60856
 30
4.62
 70
    64
  0
VERTEX
  5
990C
100
AcDbEntity
  8
0
100
AcDbVertex
100
AcDbPolygonMeshVertex
 10
0.501752
 20
-11.728559
 30
4.62
 70
    64
  0
VERTEX
  5
990D
100
AcDbEntity
  8
0
100
AcDbVertex
100
AcDbPolygonMeshVertex
 10
-0.498248
 20
-10.60856
 30
4.62
 70
    64
  0
VERTEX
  5
990E
100
AcDbEntity
  8
0
100
AcDbVertex
100
AcDbPolygonMeshVertex
 10
-0.498248
 20
-10.60856
 30
4.62
 70
    64
  0
VERTEX
  5
990F
100
AcDbEntity
  8
0
100
AcDbVertex
100
AcDbPolygonMeshVertex
 10
-0.498248
 20
-11.728559
 30
4.62
 70
    64
  0
SEQEND
  5
9910
100
AcDbEntity
  8
0
  0
CIRCLE
  5
9911
100
AcDbEntity
  8
0
100
AcDbCircle
 10
0.001752
 20
-11.16856
 30
4.62
 40
0.3125
  0
CIRCLE
  5
9912
100
AcDbEntity
  8
0
100
AcDbCircle
 10
0.001752
 20
-11.16856
 30
4.62
 40
0.375
  0
POLYLINE
  5
9913
100
AcDbEntity
  8
0
100
AcDbPolygonMesh
 66
     1
 10
0.0
 20
0.0
 30
0.0
 70
    16
 71
     6
 72
     3
  0
VERTEX
  5
9914
100
AcDbEntity
  8
0
100
AcDbVertex
100
AcDbPolygonMeshVertex
 10
2.126752
 20
-11.728559
 30
4.62
 70
    64
  0
VERTEX
  5
9915
100
AcDbEntity
  8
0
100
AcDbVertex
100
AcDbPolygonMeshVertex
 10
2.126752
 20
-11.728559
 30
3.74
 70
    64
  0
VERTEX
  5
9916
100
AcDbEntity
  8
0
100
AcDbVertex
100
AcDbPolygonMeshVertex
 10
2.126752
 20
-11.728559
 30
3.74
 70
    64
  0
VERTEX
  5
9917
100
AcDbEntity
  8
0
100
AcDbVertex
100
AcDbPolygonMeshVertex
 10
1.126752
 20
-11.728559
 30
4.62
 70
    64
  0
VERTEX
  5
9918
100
AcDbEntity
  8
0
100
AcDbVertex
100
AcDbPolygonMeshVertex
 10
1.126752
 20
-11.728559
 30
3.74
 70
    64
  0
VERTEX
  5
9919
100
AcDbEntity
  8
0
100
AcDbVertex
100
AcDbPolygonMeshVertex
 10
1.126752
 20
-11.728559
 30
3.74
 70
    64
  0
VERTEX
  5
991A
100
AcDbEntity
  8
0
100
AcDbVertex
100
AcDbPolygonMeshVertex
 10
1.126752
 20
-10.60856
 30
4.62
 70
    64
  0
VERTEX
  5
991B
100
AcDbEntity
  8
0
100
AcDbVertex
100
AcDbPolygonMeshVertex
 10
1.126752
 20
-10.60856
 30
3.74
 70
    64
  0
VERTEX
  5
991C
100
AcDbEntity
  8
0
100
AcDbVertex
100
AcDbPolygonMeshVertex
 10
1.126752
 20
-11.728559
 30
3.74
 70
    64
  0
VERTEX
  5
991D
100
AcDbEntity
  8
0
100
AcDbVertex
100
AcDbPolygonMeshVertex
 10
2.126752
 20
-10.60856
 30
4.62
 70
    64
  0
VERTEX
  5
991E
100
AcDbEntity
  8
0
100
AcDbVertex
100
AcDbPolygonMeshVertex
 10
2.126752
 20
-10.60856
 30
3.74
 70
    64
  0
VERTEX
  5
991F
100
AcDbEntity
  8
0
100
AcDbVertex
100
AcDbPolygonMeshVertex
 10
2.126752
 20
-11.728559
 30
3.74
 70
    64
  0
VERTEX
  5
9920
100
AcDbEntity
  8
0
100
AcDbVertex
100
AcDbPolygonMeshVertex
 10
2.126752
 20
-10.60856
 30
4.62
 70
    64
  0
VERTEX
  5
9921
100
AcDbEntity
  8
0
100
AcDbVertex
100
AcDbPolygonMeshVertex
 10
2.126752
 20
-10.60856
 30
4.62
 70
    64
  0
VERTEX
  5
9922
100
AcDbEntity
  8
0
100
AcDbVertex
100
AcDbPolygonMeshVertex
 10
2.126752
 20
-11.728559
 30
4.62
 70
    64
  0
VERTEX
  5
9923
100
AcDbEntity
  8
0
100
AcDbVertex
100
AcDbPolygonMeshVertex
 10
1.126752
 20
-10.60856
 30
4.62
 70
    64
  0
VERTEX
  5
9924
100
AcDbEntity
  8
0
100
AcDbVertex
100
AcDbPolygonMeshVertex
 10
1.126752
 20
-10.60856
 30
4.62
 70
    64
  0
VERTEX
  5
9925
100
AcDbEntity
  8
0
100
AcDbVertex
100
AcDbPolygonMeshVertex
 10
1.126752
 20
-11.728559
 30
4.62
 70
    64
  0
SEQEND
  5
9926
100
AcDbEntity
  8
0
  0
CIRCLE
  5
9927
100
AcDbEntity
  8
0
100
AcDbCircle
 10
1.626752
 20
-11.16856
 30
4.62
 40
0.375
  0
CIRCLE
  5
9928
100
AcDbEntity
  8
0
100
AcDbCircle
 10
1.626752
 20
-11.16856
 30
4.62
 40
0.3125
  0
POLYLINE
  5
9929
100
AcDbEntity
  8
0
100
AcDbPolygonMesh
 66
     1
 10
0.0
 20
0.0
 30
0.0
 70
    16
 71
     6
 72
     3
  0
VERTEX
  5
992A
100
AcDbEntity
  8
0
100
AcDbVertex
100
AcDbPolygonMeshVertex
 10
-1.123248
 20
-11.728559
 30
3.74
 70
    64
  0
VERTEX
  5
992B
100
AcDbEntity
  8
0
100
AcDbVertex
100
AcDbPolygonMeshVertex
 10
-1.123248
 20
-11.728559
 30
3.12
 70
    64
  0
VERTEX
  5
992C
100
AcDbEntity
  8
0
100
AcDbVertex
100
AcDbPolygonMeshVertex
 10
-1.123248
 20
-11.728559
 30
3.12
 70
    64
  0
VERTEX
  5
992D
100
AcDbEntity
  8
0
100
AcDbVertex
100
AcDbPolygonMeshVertex
 10
-2.123248
 20
-11.728559
 30
3.74
 70
    64
  0
VERTEX
  5
992E
100
AcDbEntity
  8
0
100
AcDbVertex
100
AcDbPolygonMeshVertex
 10
-2.123248
 20
-11.728559
 30
3.12
 70
    64
  0
VERTEX
  5
992F
100
AcDbEntity
  8
0
100
AcDbVertex
100
AcDbPolygonMeshVertex
 10
-2.123248
 20
-11.728559
 30
3.12
 70
    64
  0
VERTEX
  5
9930
100
AcDbEntity
  8
0
100
AcDbVertex
100
AcDbPolygonMeshVertex
 10
-2.123248
 20
-10.38
 30
3.74
 70
    64
  0
VERTEX
  5
9931
100
AcDbEntity
  8
0
100
AcDbVertex
100
AcDbPolygonMeshVertex
 10
-2.123248
 20
-10.38
 30
3.12
 70
    64
  0
VERTEX
  5
9932
100
AcDbEntity
  8
0
100
AcDbVertex
100
AcDbPolygonMeshVertex
 10
-2.123248
 20
-11.728559
 30
3.12
 70
    64
  0
VERTEX
  5
9933
100
AcDbEntity
  8
0
100
AcDbVertex
100
AcDbPolygonMeshVertex
 10
-1.123248
 20
-10.38
 30
3.74
 70
    64
  0
VERTEX
  5
9934
100
AcDbEntity
  8
0
100
AcDbVertex
100
AcDbPolygonMeshVertex
 10
-1.123248
 20
-10.38
 30
3.12
 70
    64
  0
VERTEX
  5
9935
100
AcDbEntity
  8
0
100
AcDbVertex
100
AcDbPolygonMeshVertex
 10
-1.123248
 20
-11.728559
 30
3.12
 70
    64
  0
VERTEX
  5
9936
100
AcDbEntity
  8
0
100
AcDbVertex
100
AcDbPolygonMeshVertex
 10
-1.123248
 20
-10.38
 30
3.74
 70
    64
  0
VERTEX
  5
9937
100
AcDbEntity
  8
0
100
AcDbVertex
100
AcDbPolygonMeshVertex
 10
-1.123248
 20
-10.38
 30
3.74
 70
    64
  0
VERTEX
  5
9938
100
AcDbEntity
  8
0
100
AcDbVertex
100
AcDbPolygonMeshVertex
 10
-1.123248
 20
-11.728559
 30
3.74
 70
    64
  0
VERTEX
  5
9939
100
AcDbEntity
  8
0
100
AcDbVertex
100
AcDbPolygonMeshVertex
 10
-2.123248
 20
-10.38
 30
3.74
 70
    64
  0
VERTEX
  5
993A
100
AcDbEntity
  8
0
100
AcDbVertex
100
AcDbPolygonMeshVertex
 10
-2.123248
 20
-10.38
 30
3.74
 70
    64
  0
VERTEX
  5
993B
100
AcDbEntity
  8
0
100
AcDbVertex
100
AcDbPolygonMeshVertex
 10
-2.123248
 20
-11.728559
 30
3.74
 70
    64
  0
SEQEND
  5
993C
100
AcDbEntity
  8
0
  0
POLYLINE
  5
993D
100
AcDbEntity
  8
0
100
AcDbPolygonMesh
 66
     1
 10
0.0
 20
0.0
 30
0.0
 70
    16
 71
     6
 72
     3
  0
VERTEX
  5
993E
100
AcDbEntity
  8
0
100
AcDbVertex
100
AcDbPolygonMeshVertex
 10
0.501752
 20
-11.728559
 30
3.74
 70
    64
  0
VERTEX
  5
993F
100
AcDbEntity
  8
0
100
AcDbVertex
100
AcDbPolygonMeshVertex
 10
0.501752
 20
-11.728559
 30
3.12
 70
    64
  0
VERTEX
  5
9940
100
AcDbEntity
  8
0
100
AcDbVertex
100
AcDbPolygonMeshVertex
 10
0.501752
 20
-11.728559
 30
3.12
 70
    64
  0
VERTEX
  5
9941
100
AcDbEntity
  8
0
100
AcDbVertex
100
AcDbPolygonMeshVertex
 10
-0.498248
 20
-11.728559
 30
3.74
 70
    64
  0
VERTEX
  5
9942
100
AcDbEntity
  8
0
100
AcDbVertex
100
AcDbPolygonMeshVertex
 10
-0.498248
 20
-11.728559
 30
3.12
 70
    64
  0
VERTEX
  5
9943
100
AcDbEntity
  8
0
100
AcDbVertex
100
AcDbPolygonMeshVertex
 10
-0.498248
 20
-11.728559
 30
3.12
 70
    64
  0
VERTEX
  5
9944
100
AcDbEntity
  8
0
100
AcDbVertex
100
AcDbPolygonMeshVertex
 10
-0.498248
 20
-10.38
 30
3.74
 70
    64
  0
VERTEX
  5
9945
100
AcDbEntity
  8
0
100
AcDbVertex
100
AcDbPolygonMeshVertex
 10
-0.498248
 20
-10.38
 30
3.12
 70
    64
  0
VERTEX
  5
9946
100
AcDbEntity
  8
0
100
AcDbVertex
100
AcDbPolygonMeshVertex
 10
-0.498248
 20
-11.728559
 30
3.12
 70
    64
  0
VERTEX
  5
9947
100
AcDbEntity
  8
0
100
AcDbVertex
100
AcDbPolygonMeshVertex
 10
0.501752
 20
-10.38
 30
3.74
 70
    64
  0
VERTEX
  5
9948
100
AcDbEntity
  8
0
100
AcDbVertex
100
AcDbPolygonMeshVertex
 10
0.501752
 20
-10.38
 30
3.12
 70
    64
  0
VERTEX
  5
9949
100
AcDbEntity
  8
0
100
AcDbVertex
100
AcDbPolygonMeshVertex
 10
0.501752
 20
-11.728559
 30
3.12
 70
    64
  0
VERTEX
  5
994A
100
AcDbEntity
  8
0
100
AcDbVertex
100
AcDbPolygonMeshVertex
 10
0.501752
 20
-10.38
 30
3.74
 70
    64
  0
VERTEX
  5
994B
100
AcDbEntity
  8
0
100
AcDbVertex
100
AcDbPolygonMeshVertex
 10
0.501752
 20
-10.38
 30
3.74
 70
    64
  0
VERTEX
  5
994C
100
AcDbEntity
  8
0
100
AcDbVertex
100
AcDbPolygonMeshVertex
 10
0.501752
 20
-11.728559
 30
3.74
 70
    64
  0
VERTEX
  5
994D
100
AcDbEntity
  8
0
100
AcDbVertex
100
AcDbPolygonMeshVertex
 10
-0.498248
 20
-10.38
 30
3.74
 70
    64
  0
VERTEX
  5
994E
100
AcDbEntity
  8
0
100
AcDbVertex
100
AcDbPolygonMeshVertex
 10
-0.498248
 20
-10.38
 30
3.74
 70
    64
  0
VERTEX
  5
994F
100
AcDbEntity
  8
0
100
AcDbVertex
100
AcDbPolygonMeshVertex
 10
-0.498248
 20
-11.728559
 30
3.74
 70
    64
  0
SEQEND
  5
9950
100
AcDbEntity
  8
0
  0
POLYLINE
  5
9951
100
AcDbEntity
  8
0
100
AcDbPolygonMesh
 66
     1
 10
0.0
 20
0.0
 30
0.0
 70
    16
 71
     6
 72
     3
  0
VERTEX
  5
9952
100
AcDbEntity
  8
0
100
AcDbVertex
100
AcDbPolygonMeshVertex
 10
2.126752
 20
-11.728559
 30
3.74
 70
    64
  0
VERTEX
  5
9953
100
AcDbEntity
  8
0
100
AcDbVertex
100
AcDbPolygonMeshVertex
 10
2.126752
 20
-11.728559
 30
3.12
 70
    64
  0
VERTEX
  5
9954
100
AcDbEntity
  8
0
100
AcDbVertex
100
AcDbPolygonMeshVertex
 10
2.126752
 20
-11.728559
 30
3.12
 70
    64
  0
VERTEX
  5
9955
100
AcDbEntity
  8
0
100
AcDbVertex
100
AcDbPolygonMeshVertex
 10
1.126752
 20
-11.728559
 30
3.74
 70
    64
  0
VERTEX
  5
9956
100
AcDbEntity
  8
0
100
AcDbVertex
100
AcDbPolygonMeshVertex
 10
1.126752
 20
-11.728559
 30
3.12
 70
    64
  0
VERTEX
  5
9957
100
AcDbEntity
  8
0
100
AcDbVertex
100
AcDbPolygonMeshVertex
 10
1.126752
 20
-11.728559
 30
3.12
 70
    64
  0
VERTEX
  5
9958
100
AcDbEntity
  8
0
100
AcDbVertex
100
AcDbPolygonMeshVertex
 10
1.126752
 20
-10.38
 30
3.74
 70
    64
  0
VERTEX
  5
9959
100
AcDbEntity
  8
0
100
AcDbVertex
100
AcDbPolygonMeshVertex
 10
1.126752
 20
-10.38
 30
3.12
 70
    64
  0
VERTEX
  5
995A
100
AcDbEntity
  8
0
100
AcDbVertex
100
AcDbPolygonMeshVertex
 10
1.126752
 20
-11.728559
 30
3.12
 70
    64
  0
VERTEX
  5
995B
100
AcDbEntity
  8
0
100
AcDbVertex
100
AcDbPolygonMeshVertex
 10
2.126752
 20
-10.38
 30
3.74
 70
    64
  0
VERTEX
  5
995C
100
AcDbEntity
  8
0
100
AcDbVertex
100
AcDbPolygonMeshVertex
 10
2.126752
 20
-10.38
 30
3.12
 70
    64
  0
VERTEX
  5
995D
100
AcDbEntity
  8
0
100
AcDbVertex
100
AcDbPolygonMeshVertex
 10
2.126752
 20
-11.728559
 30
3.12
 70
    64
  0
VERTEX
  5
995E
100
AcDbEntity
  8
0
100
AcDbVertex
100
AcDbPolygonMeshVertex
 10
2.126752
 20
-10.38
 30
3.74
 70
    64
  0
VERTEX
  5
995F
100
AcDbEntity
  8
0
100
AcDbVertex
100
AcDbPolygonMeshVertex
 10
2.126752
 20
-10.38
 30
3.74
 70
    64
  0
VERTEX
  5
9960
100
AcDbEntity
  8
0
100
AcDbVertex
100
AcDbPolygonMeshVertex
 10
2.126752
 20
-11.728559
 30
3.74
 70
    64
  0
VERTEX
  5
9961
100
AcDbEntity
  8
0
100
AcDbVertex
100
AcDbPolygonMeshVertex
 10
1.126752
 20
-10.38
 30
3.74
 70
    64
  0
VERTEX
  5
9962
100
AcDbEntity
  8
0
100
AcDbVertex
100
AcDbPolygonMeshVertex
 10
1.126752
 20
-10.38
 30
3.74
 70
    64
  0
VERTEX
  5
9963
100
AcDbEntity
  8
0
100
AcDbVertex
100
AcDbPolygonMeshVertex
 10
1.126752
 20
-11.728559
 30
3.74
 70
    64
  0
SEQEND
  5
9964
100
AcDbEntity
  8
0
  0
LINE
  5
9965
100
AcDbEntity
  8
0
100
AcDbLine
 10
3.25
 20
-8.16
 30
0.0
 11
3.25
 21
-11.03
 31
0.0
  0
LINE
  5
9966
100
AcDbEntity
  8
0
100
AcDbLine
 10
-3.25
 20
-8.16
 30
0.0
 11
-3.25
 21
-11.03
 31
0.0
  0
LINE
  5
9967
100
AcDbEntity
  8
0
100
AcDbLine
 10
-3.25
 20
-8.16
 30
0.3
 11
-3.25
 21
-11.03
 31
0.3
  0
POLYLINE
  5
9968
100
AcDbEntity
  8
0
100
AcDbPolygonMesh
 66
     1
 10
0.0
 20
0.0
 30
0.0
 70
    16
 71
     6
 72
     3
  0
VERTEX
  5
9969
100
AcDbEntity
  8
0
100
AcDbVertex
100
AcDbPolygonMeshVertex
 10
3.25
 20
-11.03
 30
0.3
 70
    64
  0
VERTEX
  5
996A
100
AcDbEntity
  8
0
100
AcDbVertex
100
AcDbPolygonMeshVertex
 10
3.25
 20
-11.03
 30
0.0
 70
    64
  0
VERTEX
  5
996B
100
AcDbEntity
  8
0
100
AcDbVertex
100
AcDbPolygonMeshVertex
 10
3.25
 20
-11.03
 30
0.0
 70
    64
  0
VERTEX
  5
996C
100
AcDbEntity
  8
0
100
AcDbVertex
100
AcDbPolygonMeshVertex
 10
-3.25
 20
-11.03
 30
0.3
 70
    64
  0
VERTEX
  5
996D
100
AcDbEntity
  8
0
100
AcDbVertex
100
AcDbPolygonMeshVertex
 10
-3.25
 20
-11.03
 30
0.0
 70
    64
  0
VERTEX
  5
996E
100
AcDbEntity
  8
0
100
AcDbVertex
100
AcDbPolygonMeshVertex
 10
-3.25
 20
-11.03
 30
0.0
 70
    64
  0
VERTEX
  5
996F
100
AcDbEntity
  8
0
100
AcDbVertex
100
AcDbPolygonMeshVertex
 10
-3.25
 20
-1.23
 30
0.3
 70
    64
  0
VERTEX
  5
9970
100
AcDbEntity
  8
0
100
AcDbVertex
100
AcDbPolygonMeshVertex
 10
-3.25
 20
-1.23
 30
0.0
 70
    64
  0
VERTEX
  5
9971
100
AcDbEntity
  8
0
100
AcDbVertex
100
AcDbPolygonMeshVertex
 10
-3.25
 20
-11.03
 30
0.0
 70
    64
  0
VERTEX
  5
9972
100
AcDbEntity
  8
0
100
AcDbVertex
100
AcDbPolygonMeshVertex
 10
3.25
 20
-1.23
 30
0.3
 70
    64
  0
VERTEX
  5
9973
100
AcDbEntity
  8
0
100
AcDbVertex
100
AcDbPolygonMeshVertex
 10
3.25
 20
-1.23
 30
0.0
 70
    64
  0
VERTEX
  5
9974
100
AcDbEntity
  8
0
100
AcDbVertex
100
AcDbPolygonMeshVertex
 10
3.25
 20
-11.03
 30
0.0
 70
    64
  0
VERTEX
  5
9975
100
AcDbEntity
  8
0
100
AcDbVertex
100
AcDbPolygonMeshVertex
 10
3.25
 20
-1.23
 30
0.3
 70
    64
  0
VERTEX
  5
9976
100
AcDbEntity
  8
0
100
AcDbVertex
100
AcDbPolygonMeshVertex
 10
3.25
 20
-1.23
 30
0.3
 70
    64
  0
VERTEX
  5
9977
100
AcDbEntity
  8
0
100
AcDbVertex
100
AcDbPolygonMeshVertex
 10
3.25
 20
-11.03
 30
0.3
 70
    64
  0
VERTEX
  5
9978
100
AcDbEntity
  8
0
100
AcDbVertex
100
AcDbPolygonMeshVertex
 10
-3.25
 20
-1.23
 30
0.3
 70
    64
  0
VERTEX
  5
9979
100
AcDbEntity
  8
0
100
AcDbVertex
100
AcDbPolygonMeshVertex
 10
-3.25
 20
-1.23
 30
0.3
 70
    64
  0
VERTEX
  5
997A
100
AcDbEntity
  8
0
100
AcDbVertex
100
AcDbPolygonMeshVertex
 10
-3.25
 20
-11.03
 30
0.3
 70
    64
  0
SEQEND
  5
997B
100
AcDbEntity
  8
0
  0
3DFACE
  5
997C
100
AcDbEntity
  8
0
100
AcDbFace
 10
-3.5
 20
-10.16
 30
0.0
 11
-3.5
 21
-10.16
 31
0.3
 12
-3.25
 22
-11.03
 32
0.3
 13
-3.25
 23
-11.03
 33
0.0
  0
LINE
  5
997D
100
AcDbEntity
  8
0
100
AcDbLine
 39
0.3
 10
3.5
 20
-10.16
 30
0.0
 11
3.5
 21
-8.59
 31
0.0
  0
LINE
  5
997E
100
AcDbEntity
  8
0
100
AcDbLine
 39
0.3
 10
3.5
 20
-8.59
 30
0.0
 11
3.25
 21
-8.16
 31
0.0
  0
LINE
  5
997F
100
AcDbEntity
  8
0
100
AcDbLine
 39
0.3
 10
3.25
 20
-8.16
 30
0.0
 11
3.25
 21
-1.23
 31
0.0
  0
LINE
  5
9980
100
AcDbEntity
  8
0
100
AcDbLine
 39
0.3
 10
-3.25
 20
-1.23
 30
0.0
 11
-3.25
 21
-8.16
 31
0.0
  0
LINE
  5
9981
100
AcDbEntity
  8
0
100
AcDbLine
 39
0.3
 10
-3.25
 20
-8.16
 30
0.0
 11
-3.5
 21
-8.59
 31
0.0
  0
LINE
  5
9982
100
AcDbEntity
  8
0
100
AcDbLine
 39
0.3
 10
-3.5
 20
-8.59
 30
0.0
 11
-3.5
 21
-10.16
 31
0.0
  0
3DFACE
  5
9983
100
AcDbEntity
  8
0
100
AcDbFace
 10
-3.5
 20
-8.59
 30
0.3
 11
-3.25
 21
-8.16
 31
0.3
 12
-3.25
 22
-11.03
 32
0.3
 13
-3.5
 23
-10.16
 33
0.3
  0
3DFACE
  5
9984
100
AcDbEntity
  8
0
100
AcDbFace
 10
3.5
 20
-10.16
 30
0.3
 11
3.5
 21
-10.16
 31
0.0
 12
3.25
 22
-11.03
 32
0.0
 13
3.25
 23
-11.03
 33
0.3
  0
3DFACE
  5
9985
100
AcDbEntity
  8
0
100
AcDbFace
 10
3.25
 20
-8.16
 30
0.3
 11
3.5
 21
-8.59
 31
0.3
 12
3.5
 22
-10.16
 32
0.3
 13
3.25
 23
-11.03
 33
0.3
  0
3DFACE
  5
9986
100
AcDbEntity
  8
0
100
AcDbFace
 10
-3.25
 20
-1.23
 30
0.3
 11
-2.125
 21
0.38
 31
0.3
 12
2.125
 22
0.38
 32
0.3
 13
3.25
 23
-1.23
 33
0.3
  0
3DFACE
  5
9987
100
AcDbEntity
  8
0
100
AcDbFace
 10
-3.25
 20
-1.23
 30
0.0
 11
-2.125
 21
0.38
 31
0.0
 12
2.125
 22
0.38
 32
0.0
 13
3.25
 23
-1.23
 33
0.0
  0
3DFACE
  5
9988
100
AcDbEntity
  8
0
100
AcDbFace
 10
2.125
 20
0.38
 30
0.3
 11
2.125
 21
0.38
 31
0.0
 12
3.25
 22
-1.23
 32
0.0
 13
3.25
 23
-1.23
 33
0.3
  0
3DFACE
  5
9989
100
AcDbEntity
  8
0
100
AcDbFace
 10
-2.125
 20
0.38
 30
0.3
 11
-2.125
 21
0.38
 31
0.0
 12
2.125
 22
0.38
 32
0.0
 13
2.125
 23
0.38
 33
0.3
  0
3DFACE
  5
998A
100
AcDbEntity
  8
0
100
AcDbFace
 10
-2.125
 20
0.38
 30
0.3
 11
-2.125
 21
0.38
 31
0.0
 12
-3.25
 22
-1.23
 32
0.0
 13
-3.25
 23
-1.23
 33
0.3
  0
TEXT
  5
998B
100
AcDbEntity
  8
0
100
AcDbText
 10
-2.119564
 20
-0.804998
 30
7.62
 40
0.175255
  1
L1
100
AcDbText
  0
TEXT
  5
998C
100
AcDbEntity
  8
0
100
AcDbText
 10
-0.134833
 20
-0.816366
 30
7.62
 40
0.175255
  1
L2
100
AcDbText
  0
TEXT
  5
998D
100
AcDbEntity
  8
0
100
AcDbText
 10
1.887345
 20
-0.80902
 30
7.62
 40
0.175255
  1
L3
100
AcDbText
  0
TEXT
  5
998E
100
AcDbEntity
  8
0
100
AcDbText
 10
-1.73949
 20
-11.296378
 30
4.62
 40
0.175255
  1
T1
100
AcDbText
  0
TEXT
  5
998F
100
AcDbEntity
  8
0
100
AcDbText
 10
-0.14796
 20
-11.270317
 30
4.62
 40
0.175255
  1
T2
100
AcDbText
  0
TEXT
  5
9990
100
AcDbEntity
  8
0
100
AcDbText
 10
1.481017
 20
-11.26297
 30
4.62
 40
0.175255
  1
T3
100
AcDbText
  0
ATTDEF
  5
9991
100
AcDbEntity
  8
ATTRIBUTES
100
AcDbText
 10
-2.75017
 20
-7.731431
 30
0.0
 40
0.187706
  1
ALLEN-BRADLEY
100
AcDbAttributeDefinition
  3
MANUFACTURER NAME?
  2
AC_VND_LABEL
 70
     1
  0
ATTDEF
  5
9992
100
AcDbEntity
  8
ATTRIBUTES
100
AcDbText
 10
-2.75017
 20
-8.122486
 30
0.0
 40
0.187706
  1
500FL-E
100
AcDbAttributeDefinition
  3
CATALOG NUMBER?
  2
AC_PART_NO
 70
     1
  0
ATTDEF
  5
9993
100
AcDbEntity
  8
ATTRIBUTES
100
AcDbText
 10
-2.75017
 20
-8.51354
 30
0.0
 40
0.187706
  1
NEMA AC NON-MOTOR LOADS FEED-THROUGH WIRING CONTACTOR; SIZE 4; 3P
100
AcDbAttributeDefinition
  3
PART DESCRIPTION?
  2
AC_DESCRIPTION
 70
     1
  0
ATTDEF
  5
9994
100
AcDbEntity
  8
ATTRIBUTES
100
AcDbText
 10
-2.75017
 20
-8.904595
 30
0.0
 40
0.187706
  1

100
AcDbAttributeDefinition
  3
DEVICE ID?
  2
DEVICE_ID
 70
     1
  0
ATTDEF
  5
9995
100
AcDbEntity
  8
ATTRIBUTES
100
AcDbText
 10
-2.75017
 20
-9.295649
 30
0.0
 40
0.187706
  1

100
AcDbAttributeDefinition
  3
CUSTOMER PART NUMBER?
  2
AC_CPART_NO
 70
     1
  0
ATTDEF
  5
9996
100
AcDbEntity
  8
ATTRIBUTES
100
AcDbText
 10
-2.75017
 20
-9.686704
 30
0.0
 40
0.187706
  1

100
AcDbAttributeDefinition
  3
CUSTOMER NOTE?
  2
AC_NOTE
 70
     1
  0
ATTDEF
  5
9997
100
AcDbEntity
  8
ATTRIBUTES
100
AcDbText
 10
-2.75017
 20
-10.077758
 30
0.0
 40
0.187706
  1

100
AcDbAttributeDefinition
  3
FASTENER DATA?
  2
FASTENER
 70
     1
  0
ATTDEF
  5
9998
100
AcDbEntity
  8
ATTRIBUTES
100
AcDbText
 10
-2.75017
 20
-10.468813
 30
0.0
 40
0.187706
  1
INCH
100
AcDbAttributeDefinition
  3
UNIT OF SCALE?
  2
AC_SCALE_UNIT
 70
     1
  0
ATTDEF
  5
9999
100
AcDbEntity
  8
ATTRIBUTES
100
AcDbText
 10
-2.75017
 20
-10.859867
 30
0.0
 40
0.187706
  1
0
100
AcDbAttributeDefinition
  3
VIEW CODE?
  2
AC_VIEW_CODE
 70
     1
  0
POINT
  5
999A
100
AcDbEntity
  8
DIMS-MTG-HOLES
100
AcDbPoint
 10
0.0
 20
0.0
 30
0.0
  0
POINT
  5
999B
100
AcDbEntity
  8
DIMS-MTG-HOLES
100
AcDbPoint
 10
1.0
 20
0.0
 30
0.0
  0
POINT
  5
999C
100
AcDbEntity
  8
DIMS-MTG-HOLES
100
AcDbPoint
 10
-3.156
 20
-9.84
 30
0.0
  0
POINT
  5
999D
100
AcDbEntity
  8
DIMS-MTG-HOLES
100
AcDbPoint
 10
3.156
 20
-9.84
 30
0.0
  0
DIMENSION
  5
999E
100
AcDbEntity
  8
AREA1
100
AcDbDimension
  2
*D0
 10
-4.813852
 20
-11.728559
 30
0.0
 11
-4.813852
 21
-5.966899
 31
0.0
 70
   160
  3
ABECAD_3V
100
AcDbAlignedDimension
 13
-2.125
 23
0.38
 33
0.0
 14
-2.123248
 24
-11.728559
 34
3.12
 50
90.0
100
AcDbRotatedDimension
1001
ACAD
1000
DSTYLE
1002
{
1070
    40
1040
4.056495
1002
}
  0
DIMENSION
  5
999F
100
AcDbEntity
  8
AREA1
100
AcDbDimension
  2
*D1
 10
3.5
 20
1.604625
 30
0.0
 11
0.054911
 21
1.604625
 31
0.0
 70
   160
  3
ABECAD_3V
100
AcDbAlignedDimension
 13
-3.5
 23
-8.59
 33
0.0
 14
3.5
 24
-8.59
 34
0.0
100
AcDbRotatedDimension
1001
ACAD
1000
DSTYLE
1002
{
1070
    40
1040
4.056495
1002
}
  0
LWPOLYLINE
  5
99A0
100
AcDbEntity
  8
SCALE
100
AcDbPolyline
 90
        4
 70
     1
 43
0.0
 10
-0.625411
 20
-12.170754
 10
0.510218
 20
-12.170754
 10
0.510218
 20
-13.012364
 10
-0.625411
 20
-13.012364
  0
LINE
  5
99A1
100
AcDbEntity
  8
SCALE
100
AcDbLine
 10
-0.567412
 20
-12.550832
 30
0.0
 11
0.432588
 21
-12.550832
 31
0.0
  0
LINE
  5
99A2
100
AcDbEntity
  8
SCALE
100
AcDbLine
 10
-0.567412
 20
-12.850832
 30
0.0
 11
-0.173712
 21
-12.850832
 31
0.0
  0
LINE
  5
99A3
100
AcDbEntity
  8
SCALE
100
AcDbLine
 10
-0.567412
 20
-12.650832
 30
0.0
 11
-0.567412
 21
-12.450832
 31
0.0
  0
TEXT
  5
99A4
100
AcDbEntity
  8
SCALE
100
AcDbText
 10
-0.511436
 20
-12.803147
 30
0.0
 40
0.0625
  1
[10mm]
100
AcDbText
  0
LINE
  5
99A5
100
AcDbEntity
  8
SCALE
100
AcDbLine
 10
-0.567412
 20
-12.950832
 30
0.0
 11
-0.567412
 21
-12.750832
 31
0.0
  0
TEXT
  5
99A6
100
AcDbEntity
  8
SCALE
100
AcDbText
 10
-0.565882
 20
-12.275955
 30
0.0
 40
0.0625
  1
SCALE:
100
AcDbText
  0
LINE
  5
99A7
100
AcDbEntity
  8
SCALE
100
AcDbLine
 10
-0.173712
 20
-12.950832
 30
0.0
 11
-0.173712
 21
-12.750832
 31
0.0
  0
TEXT
  5
99A8
100
AcDbEntity
  8
SCALE
100
AcDbText
 10
-0.204129
 20
-12.481784
 30
0.0
 40
0.0625
  1
1 Inch
100
AcDbText
  0
LINE
  5
99A9
100
AcDbEntity
  8
SCALE
100
AcDbLine
 10
0.432588
 20
-12.550832
 30
0.0
 11
0.432588
 21
-12.650832
 31
0.0
  0
LINE
  5
99AA
100
AcDbEntity
  8
SCALE
100
AcDbLine
 10
0.432588
 20
-12.650832
 30
0.0
 11
0.432588
 21
-12.450832
 31
0.0
  0
DIMENSION
  5
99D9
100
AcDbEntity
  8
AREA2
100
AcDbDimension
  2
*D2
 10
-4.487756
 20
0.0
 30
0.0
 11
-4.487756
 21
3.723909
 31
0.0
 70
   160
210
0.0
220
-1.0
230
0.0
  3
ABECAD_3V
100
AcDbAlignedDimension
 13
-2.53
 23
-0.17
 33
7.62
 14
-3.5
 24
0.38
 34
0.0
 50
90.0
100
AcDbRotatedDimension
1001
ACAD
1000
DSTYLE
1002
{
1070
    40
1040
4.056495
1002
}
  0
VIEWPORT
  5
2C
102
{ACAD_XDICTIONARY
360
9ADC
102
}
100
AcDbEntity
 67
     1
  8
0
100
AcDbViewport
 10
4.999849
 20
3.750155
 30
0.0
 40
14.605422
 41
7.605506
 68
     1
 69
     1
1001
ACAD
1000
MVIEW
1002
{
1070
    16
1010
0.0
1020
0.0
1030
0.0
1010
0.0
1020
0.0
1030
1.0
1040
0.0
1040
7.605506
1040
4.999849
1040
3.750155
1040
50.0
1040
0.0
1040
0.0
1070
     0
1070
   100
1070
     1
1070
     1
1070
     0
1070
     0
1070
     0
1070
     0
1040
0.0
1040
0.0
1040
0.0
1040
1.0
1040
1.0
1040
0.0
1040
0.0
1070
     0
1002
{
1002
}
1002
}
  0
VIEWPORT
  5
2D
102
{ACAD_XDICTIONARY
360
9ADE
102
}
100
AcDbEntity
 67
     1
  8
0
100
AcDbViewport
 10
2.5
 20
5.625
 30
0.0
 40
5.0
 41
3.75
 68
     2
 69
     2
1001
ACAD
1000
MVIEW
1002
{
1070
    16
1010
0.0
1020
0.0
1030
0.0
1010
0.0
1020
0.0
1030
1.0
1040
0.0
1040
15.211857
1040
-0.746926
1040
-4.632447
1040
50.0
1040
0.0
1040
0.0
1070
     0
1070
   100
1070
     1
1070
     0
1070
     0
1070
     0
1070
     0
1070
     0
1040
0.0
1040
0.0
1040
0.0
1040
1.0
1040
1.0
1040
0.0
1040
0.0
1070
     0
1002
{
1003
AREA2
1002
}
1002
}
  0
VIEWPORT
  5
2E
102
{ACAD_XDICTIONARY
360
9AE0
102
}
100
AcDbEntity
 67
     1
  8
0
100
AcDbViewport
 10
2.5
 20
1.875
 30
0.0
 40
5.0
 41
3.75
 68
     3
 69
     3
1001
ACAD
1000
MVIEW
1002
{
1070
    16
1010
0.0
1020
0.0
1030
0.0
1010
0.0
1020
-1.0
1030
0.0
1040
0.0
1040
14.144673
1040
-0.746926
1040
3.81
1040
50.0
1040
0.0
1040
0.0
1070
     0
1070
   100
1070
     1
1070
     0
1070
     0
1070
     0
1070
     0
1070
     0
1040
0.0
1040
0.0
1040
0.0
1040
1.0
1040
1.0
1040
0.0
1040
0.0
1070
     0
1002
{
1003
AREA1
1002
}
1002
}
  0
VIEWPORT
  5
2F
102
{ACAD_XDICTIONARY
360
9AE2
102
}
100
AcDbEntity
 67
     1
  8
0
100
AcDbViewport
 10
7.5
 20
3.75
 30
0.0
 40
5.0
 41
7.5
 68
     4
 69
     4
1001
ACAD
1000
MVIEW
1002
{
1070
    16
1010
0.0
1020
0.0
1030
0.0
1010
-1.0
1020
-1.0
1030
1.0
1040
0.0
1040
25.223744
1040
3.441449
1040
0.514068
1040
50.0
1040
0.0
1040
0.0
1070
     0
1070
   100
1070
     1
1070
     0
1070
     0
1070
     0
1070
     0
1070
     0
1040
0.0
1040
0.0
1040
0.0
1040
1.0
1040
1.0
1040
0.0
1040
0.0
1070
     0
1002
{
1003
AREA1
1003
AREA2
1002
}
1002
}
  0
TEXT
  5
42D
100
AcDbEntity
 67
     1
  8
0
100
AcDbText
 10
5.253785
 20
7.092701
 30
0.0
 40
0.2
  1
500FL-E
100
AcDbText
  0
TEXT
  5
431
100
AcDbEntity
 67
     1
  8
0
100
AcDbText
 10
5.253785
 20
6.759368
 30
0.0
 40
0.2
  1
NEMA AC NON-MOTOR LOADS 
100
AcDbText
1001
ACAD
1000
R13OBJECT
1002
{
1005
42D
1002
}
  0
TEXT
  5
68C8
100
AcDbEntity
 67
     1
  8
0
100
AcDbText
 10
5.253785
 20
6.410293
 30
0.0
 40
0.2
  1
FEED-THROUGH WIRING 
100
AcDbText
1001
ACAD
1000
R13OBJECT
1002
{
1005
42D
1002
}
  0
TEXT
  5
714F
100
AcDbEntity
 67
     1
  8
0
100
AcDbText
 10
5.253785
 20
6.078672
 30
0.0
 40
0.2
  1
CONTACTOR; SIZE 4; 3P
100
AcDbText
1001
ACAD
1000
R13OBJECT
1002
{
1005
42D
1002
}
  0
ENDSEC
  0
SECTION
  2
OBJECTS
  0
DICTIONARY
  5
46D
100
AcDbDictionary
  3
ACAD_GROUP
350
46E
  3
ACAD_LAYOUT
350
49E
  3
ACAD_MLINESTYLE
350
47B
  3
ACAD_PLOTSETTINGS
350
49F
  3
ACAD_PLOTSTYLENAME
350
49C
  3
ACDBHEADERROUNDTRIPXREC
350
9ABB
  3
ACDBVARIABLEDICTIONARY
350
48D
  0
DICTIONARY
  5
9AB9
100
AcDbDictionary
280
     1
  3
ACAD_XREC_ROUNDTRIP
360
9ABA
  0
DICTIONARY
  5
9AE6
100
AcDbDictionary
280
     1
  3
ACAD_XREC_ROUNDTRIP
360
9AE7
  0
DICTIONARY
  5
9AE8
100
AcDbDictionary
280
     1
  3
ACAD_XREC_ROUNDTRIP
360
9AE9
  0
DICTIONARY
  5
9AEC
100
AcDbDictionary
280
     1
  3
ACAD_XREC_ROUNDTRIP
360
9AED
  0
DICTIONARY
  5
4D2
100
AcDbDictionary
280
     1
  3
ACAD_LAYOUTSELFREF
360
9AE5
  0
DICTIONARY
  5
4D0
100
AcDbDictionary
280
     1
  3
ACAD_LAYOUTSELFREF
360
9AE4
  0
DICTIONARY
  5
9ADC
100
AcDbDictionary
280
     1
  3
ACAD_XREC_ROUNDTRIP
360
9ADD
  0
DICTIONARY
  5
9ADE
100
AcDbDictionary
280
     1
  3
ACAD_XREC_ROUNDTRIP
360
9ADF
  0
DICTIONARY
  5
9AE0
100
AcDbDictionary
280
     1
  3
ACAD_XREC_ROUNDTRIP
360
9AE1
  0
DICTIONARY
  5
9AE2
100
AcDbDictionary
280
     1
  3
ACAD_XREC_ROUNDTRIP
360
9AE3
  0
DICTIONARY
  5
46E
102
{ACAD_REACTORS
330
46D
102
}
100
AcDbDictionary
  0
DICTIONARY
  5
49E
102
{ACAD_XDICTIONARY
360
9AEA
102
}
102
{ACAD_REACTORS
330
46D
102
}
100
AcDbDictionary
  3
LAYOUT1
350
4A1
  3
MODEL
350
4A0
  0
DICTIONARY
  5
47B
102
{ACAD_REACTORS
330
46D
102
}
100
AcDbDictionary
  3
STANDARD
350
47C
  0
DICTIONARY
  5
49F
102
{ACAD_REACTORS
330
46D
102
}
100
AcDbDictionary
  0
ACAD_PROXY_OBJECT
  5
49C
102
{ACAD_REACTORS
330
46D
102
}
100
AcDbProxyObject
 90
      499
 91
      501
 93
       86
310
405010041939BDC9B585B0
350
49D
340
49D
 94
        0
  0
DICTIONARY
  5
9ABB
102
{ACAD_REACTORS
330
46D
102
}
100
AcDbDictionary
  3
CEPSNTYPE
350
9AC5
  3
DIMSTYLEDATA
350
9AC9
  3
FINGERPRINTGUID
350
9AC6
  3
HYPERLINKBASE
350
9ABE
  3
INSUNITS
350
9AC4
  3
LAYOUTDICT
350
9AC0
  3
LWETCUNION
350
9AC3
  3
PLOTSETDICT
350
9AC1
  3
PLOTSTYLNAMDICT
350
9AC2
  3
PSVPSCALE
350
9AC8
  3
PUCSBASE
350
9ACC
  3
PUCSORGBACK
350
9AD2
  3
PUCSORGBOTTOM
350
9ACE
  3
PUCSORGFRONT
350
9AD1
  3
PUCSORGLEFT
350
9ACF
  3
PUCSORGRIGHT
350
9AD0
  3
PUCSORGTOP
350
9ACD
  3
PUCSORTHOREF
350
9ACA
  3
PUCSORTHOVIEW
350
9ACB
  3
STYLESHEET
350
9ABF
  3
TSTACKALIGN
350
9ABC
  3
TSTACKSIZE
350
9ABD
  3
UCSBASE
350
9AD5
  3
UCSORGBACK
350
9ADB
  3
UCSORGBOTTOM
350
9AD7
  3
UCSORGFRONT
350
9ADA
  3
UCSORGLEFT
350
9AD8
  3
UCSORGRIGHT
350
9AD9
  3
UCSORGTOP
350
9AD6
  3
UCSORTHOREF
350
9AD3
  3
UCSORTHOVIEW
350
9AD4
  3
VERSIONGUID
350
9AC7
  0
DICTIONARY
  5
48D
102
{ACAD_REACTORS
330
46D
102
}
100
AcDbDictionary
  3
DIMADEC
350
48E
  0
XRECORD
  5
9ABA
102
{ACAD_REACTORS
330
9AB9
102
}
100
AcDbXrecord
102
EXTNAMES
  1
*ACTIVE
  2
*Active
102
UCS
 74
     0
 71
     1
 10
0.0
 20
0.0
 30
0.0
 10
1.0
 20
0.0
 30
0.0
 10
0.0
 20
1.0
 30
0.0
146
0.0
 79
     1
102
VIEW
281
     0
  0
XRECORD
  5
9AE7
102
{ACAD_REACTORS
330
9AE6
102
}
100
AcDbXrecord
102
PLOTBIT
280
     0
  0
XRECORD
  5
9AE9
102
{ACAD_REACTORS
330
9AE8
102
}
100
AcDbXrecord
102
ACADR14ROUNDTRIP
1000
DSTYLE
1002
{
1070
   276
 70
     2
1070
   277
 70
     5
1070
   279
 70
     2
1002
}
  0
XRECORD
  5
9AED
102
{ACAD_REACTORS
330
9AEC
102
}
100
AcDbXrecord
102
ACADR14ROUNDTRIP
1000
DSTYLE
1002
{
1070
   276
 70
     2
1070
   277
 70
     5
1070
   279
 70
     2
1070
   289
 70
     2
1002
}
  0
XRECORD
  5
9AE5
102
{ACAD_REACTORS
330
4D2
102
}
100
AcDbXrecord
340
478
  0
XRECORD
  5
9AE4
102
{ACAD_REACTORS
330
4D0
102
}
100
AcDbXrecord
340
475
  0
XRECORD
  5
9ADD
102
{ACAD_REACTORS
330
9ADC
102
}
100
AcDbXrecord
102
UCS
 74
     0
 71
     1
 10
0.0
 20
0.0
 30
0.0
 10
1.0
 20
0.0
 30
0.0
 10
0.0
 20
1.0
 30
0.0
146
0.0
 79
     0
102
VIEW
281
     0
102
NEWVIEWCONTROL
280
     4
  0
XRECORD
  5
9ADF
102
{ACAD_REACTORS
330
9ADE
102
}
100
AcDbXrecord
102
UCS
 74
     0
 71
     1
 10
0.0
 20
0.0
 30
0.0
 10
1.0
 20
0.0
 30
0.0
 10
0.0
 20
1.0
 30
0.0
146
0.0
 79
     1
102
VIEW
281
     0
102
NEWVIEWCONTROL
280
     4
  0
XRECORD
  5
9AE1
102
{ACAD_REACTORS
330
9AE0
102
}
100
AcDbXrecord
102
UCS
 74
     0
 71
     1
 10
0.0
 20
0.0
 30
0.0
 10
1.0
 20
0.0
 30
0.0
 10
0.0
 20
0.0
 30
1.0
146
0.0
 79
     3
102
VIEW
281
     0
102
NEWVIEWCONTROL
280
     4
  0
XRECORD
  5
9AE3
102
{ACAD_REACTORS
330
9AE2
102
}
100
AcDbXrecord
102
UCS
 74
     0
 71
     1
 10
0.0
 20
0.0
 30
0.0
 10
1.0
 20
0.0
 30
0.0
 10
0.0
 20
1.0
 30
0.0
146
0.0
 79
     0
102
VIEW
281
     0
102
NEWVIEWCONTROL
280
     4
  0
DICTIONARY
  5
9AEA
100
AcDbDictionary
280
     1
  3
ACAD_XREC_ROUNDTRIP
360
9AEB
  0
ACAD_PROXY_OBJECT
  5
4A1
102
{ACAD_REACTORS
330
49E
102
}
100
AcDbProxyObject
 90
      499
 91
      503
 93
     2044
310
91D4850204C617365724A65742035303030205365726965732050434C20362C008000000C0BB1B1440000000102F06C510000000000BC1B1440000000002E06C5100000000C0CCFC6A4000000018199D9C501064C6574746572A901406AA427D84144352EEE3F47D11959985D5B1D08148C4D081C195B88185CDCDA59DB9B5
310
95B9D1CCB98DD18A30EDE3B1BBFDBC0FC1D572C8D6D0C833F1A2B3054E9249F0FD074C61796F75743140501A97D7DB4AA43C31EFF91E46EBA53B71EFD1B32A15809809100B2537F8EAD447D02A6A6A00200C0093BD106FC0000F06EE366FABE00201F20307FD62FC4424FF2920002440160B7F435600079000000004000C06
310
23E0
330
475
330
2C
340
0
340
0
 94
        0
  0
ACAD_PROXY_OBJECT
  5
4A0
102
{ACAD_REACTORS
330
49E
102
}
100
AcDbProxyObject
 90
      499
 91
      503
 93
      924
310
91D4850204C617365724A65742035303030205365726965732050434C20362C01AAAAAAAAA547D11959985D5B1D08148C4D081C195B88185CDCDA59DB9B595B9D1CCB98DD18A69054D6F64656C901A800000000000000000000000000000000000000000000A1000000000000008902A6A6AAAA0
330
478
330
0
340
0
340
0
 94
        0
  0
MLINESTYLE
  5
47C
102
{ACAD_REACTORS
330
47B
102
}
100
AcDbMlineStyle
  2
STANDARD
 70
     0
  3

 62
   256
 51
90.0
 52
90.0
 71
     2
 49
0.5
 62
   256
  6
BYLAYER
 49
-0.5
 62
   256
  6
BYLAYER
  0
ACAD_PROXY_OBJECT
  5
49D
102
{ACAD_REACTORS
330
49C
102
}
100
AcDbProxyObject
 90
      499
 91
      502
 93
        0
 94
        0
  0
XRECORD
  5
9AC5
102
{ACAD_REACTORS
330
9ABB
102
}
100
AcDbXrecord
 90
        0
  0
XRECORD
  5
9AC9
102
{ACAD_REACTORS
330
9ABB
102
}
100
AcDbXrecord
1000
DSTYLE
1002
{
1070
   276
 70
     2
1070
   277
 70
     5
1070
   279
 70
     2
1002
}
  0
XRECORD
  5
9AC6
102
{ACAD_REACTORS
330
9ABB
102
}
100
AcDbXrecord
  1
{6E0CF4B5-225E-11D4-A150-00A0CC3303EC}
  0
XRECORD
  5
9ABE
102
{ACAD_REACTORS
330
9ABB
102
}
100
AcDbXrecord
  1

  0
XRECORD
  5
9AC4
102
{ACAD_REACTORS
330
9ABB
102
}
100
AcDbXrecord
 90
        0
  0
XRECORD
  5
9AC0
102
{ACAD_REACTORS
330
9ABB
102
}
100
AcDbXrecord
340
49E
  0
XRECORD
  5
9AC3
102
{ACAD_REACTORS
330
9ABB
102
}
100
AcDbXrecord
 90
    14877
  0
XRECORD
  5
9AC1
102
{ACAD_REACTORS
330
9ABB
102
}
100
AcDbXrecord
340
49F
  0
XRECORD
  5
9AC2
102
{ACAD_REACTORS
330
9ABB
102
}
100
AcDbXrecord
340
49C
  0
XRECORD
  5
9AC8
102
{ACAD_REACTORS
330
9ABB
102
}
100
AcDbXrecord
 40
0.0
  0
XRECORD
  5
9ACC
102
{ACAD_REACTORS
330
9ABB
102
}
100
AcDbXrecord
340
0
  0
XRECORD
  5
9AD2
102
{ACAD_REACTORS
330
9ABB
102
}
100
AcDbXrecord
 10
0.0
 20
0.0
 30
0.0
  0
XRECORD
  5
9ACE
102
{ACAD_REACTORS
330
9ABB
102
}
100
AcDbXrecord
 10
0.0
 20
0.0
 30
0.0
  0
XRECORD
  5
9AD1
102
{ACAD_REACTORS
330
9ABB
102
}
100
AcDbXrecord
 10
0.0
 20
0.0
 30
0.0
  0
XRECORD
  5
9ACF
102
{ACAD_REACTORS
330
9ABB
102
}
100
AcDbXrecord
 10
0.0
 20
0.0
 30
0.0
  0
XRECORD
  5
9AD0
102
{ACAD_REACTORS
330
9ABB
102
}
100
AcDbXrecord
 10
0.0
 20
0.0
 30
0.0
  0
XRECORD
  5
9ACD
102
{ACAD_REACTORS
330
9ABB
102
}
100
AcDbXrecord
 10
0.0
 20
0.0
 30
0.0
  0
XRECORD
  5
9ACA
102
{ACAD_REACTORS
330
9ABB
102
}
100
AcDbXrecord
340
0
  0
XRECORD
  5
9ACB
102
{ACAD_REACTORS
330
9ABB
102
}
100
AcDbXrecord
 70
     0
  0
XRECORD
  5
9ABF
102
{ACAD_REACTORS
330
9ABB
102
}
100
AcDbXrecord
  1

  0
XRECORD
  5
9ABC
102
{ACAD_REACTORS
330
9ABB
102
}
100
AcDbXrecord
 90
        1
  0
XRECORD
  5
9ABD
102
{ACAD_REACTORS
330
9ABB
102
}
100
AcDbXrecord
 90
       70
  0
XRECORD
  5
9AD5
102
{ACAD_REACTORS
330
9ABB
102
}
100
AcDbXrecord
340
0
  0
XRECORD
  5
9ADB
102
{ACAD_REACTORS
330
9ABB
102
}
100
AcDbXrecord
 10
0.0
 20
0.0
 30
0.0
  0
XRECORD
  5
9AD7
102
{ACAD_REACTORS
330
9ABB
102
}
100
AcDbXrecord
 10
0.0
 20
0.0
 30
0.0
  0
XRECORD
  5
9ADA
102
{ACAD_REACTORS
330
9ABB
102
}
100
AcDbXrecord
 10
0.0
 20
0.0
 30
0.0
  0
XRECORD
  5
9AD8
102
{ACAD_REACTORS
330
9ABB
102
}
100
AcDbXrecord
 10
0.0
 20
0.0
 30
0.0
  0
XRECORD
  5
9AD9
102
{ACAD_REACTORS
330
9ABB
102
}
100
AcDbXrecord
 10
0.0
 20
0.0
 30
0.0
  0
XRECORD
  5
9AD6
102
{ACAD_REACTORS
330
9ABB
102
}
100
AcDbXrecord
 10
0.0
 20
0.0
 30
0.0
  0
XRECORD
  5
9AD3
102
{ACAD_REACTORS
330
9ABB
102
}
100
AcDbXrecord
340
0
  0
XRECORD
  5
9AD4
102
{ACAD_REACTORS
330
9ABB
102
}
100
AcDbXrecord
 70
     1
  0
XRECORD
  5
9AC7
102
{ACAD_REACTORS
330
9ABB
102
}
100
AcDbXrecord
  1
{BCFBD2C0-A06A-4316-A6D3-BD190488081D}
  0
DICTIONARYVAR
  5
48E
102
{ACAD_REACTORS
330
48D
102
}
100
DictionaryVariables
280
     0
  1
0
  0
XRECORD
  5
9AEB
102
{ACAD_REACTORS
330
9AEA
102
}
100
AcDbXrecord
102
EXTNAMES
  1
LAYOUT1
  2
Layout1
  1
MODEL
  2
Model
  0
ENDSEC
  0
EOF
