  0
SECTION
  2
HEADER
  9
$ACADVER
  1
AC1015
  9
$ACADMAINTVER
 70
     6
  9
$DWGCODEPAGE
  3
ANSI_1252
  9
$INSBASE
 10
0.0
 20
0.0
 30
0.0
  9
$EXTMIN
 10
807.1297372239758
 20
324.1390991968377
 30
3.644056121604464
  9
$EXTMAX
 10
1115.81577928611
 20
516.7304933231484
 30
3.646124999999996
  9
$LIMMIN
 10
0.0
 20
0.0
  9
$LIMMAX
 10
12.0
 20
9.0
  9
$ORTHOMODE
 70
     0
  9
$REGENMODE
 70
     1
  9
$FILLMODE
 70
     1
  9
$QTEXTMODE
 70
     0
  9
$MIRRTEXT
 70
     1
  9
$LTSCALE
 40
5.0
  9
$ATTMODE
 70
     1
  9
$TEXTSIZE
 40
0.12
  9
$TRACEWID
 40
0.05
  9
$TEXTSTYLE
  7
STANDARD
  9
$CLAYER
  8
AREA1
  9
$CELTYPE
  6
BYLAYER
  9
$CECOLOR
 62
   256
  9
$CELTSCALE
 40
1.0
  9
$DISPSILH
 70
     0
  9
$DIMSCALE
 40
1.0
  9
$DIMASZ
 40
4.572
  9
$DIMEXO
 40
1.587499999999999
  9
$DIMDLI
 40
9.525
  9
$DIMRND
 40
0.0
  9
$DIMDLE
 40
0.0
  9
$DIMEXE
 40
4.572
  9
$DIMTP
 40
0.0
  9
$DIMTM
 40
0.0
  9
$DIMTXT
 40
4.572
  9
$DIMCEN
 40
2.286
  9
$DIMTSZ
 40
0.0
  9
$DIMTOL
 70
     0
  9
$DIMLIM
 70
     0
  9
$DIMTIH
 70
     1
  9
$DIMTOH
 70
     1
  9
$DIMSE1
 70
     0
  9
$DIMSE2
 70
     0
  9
$DIMTAD
 70
     0
  9
$DIMZIN
 70
     4
  9
$DIMBLK
  1

  9
$DIMASO
 70
     1
  9
$DIMSHO
 70
     1
  9
$DIMPOST
  1

  9
$DIMAPOST
  1

  9
$DIMALT
 70
     1
  9
$DIMALTD
 70
     6
  9
$DIMALTF
 40
0.03937
  9
$DIMLFAC
 40
1.0
  9
$DIMTOFL
 70
     0
  9
$DIMTVP
 40
0.0
  9
$DIMTIX
 70
     0
  9
$DIMSOXD
 70
     0
  9
$DIMSAH
 70
     0
  9
$DIMBLK1
  1

  9
$DIMBLK2
  1

  9
$DIMSTYLE
  2
ABECAD_3D
  9
$DIMCLRD
 70
     0
  9
$DIMCLRE
 70
     0
  9
$DIMCLRT
 70
     0
  9
$DIMTFAC
 40
1.5
  9
$DIMGAP
 40
2.286
  9
$DIMJUST
 70
     0
  9
$DIMSD1
 70
     0
  9
$DIMSD2
 70
     0
  9
$DIMTOLJ
 70
     1
  9
$DIMTZIN
 70
     4
  9
$DIMALTZ
 70
     4
  9
$DIMALTTZ
 70
     4
  9
$DIMUPT
 70
     1
  9
$DIMDEC
 70
     2
  9
$DIMTDEC
 70
     2
  9
$DIMALTU
 70
     7
  9
$DIMALTTD
 70
     6
  9
$DIMTXSTY
  7
STANDARD
  9
$DIMAUNIT
 70
     0
  9
$DIMADEC
 70
     0
  9
$DIMALTRND
 40
0.0
  9
$DIMAZIN
 70
     0
  9
$DIMDSEP
 70
    46
  9
$DIMATFIT
 70
     2
  9
$DIMFRAC
 70
     2
  9
$DIMLDRBLK
  1

  9
$DIMLUNIT
 70
     2
  9
$DIMLWD
 70
    -2
  9
$DIMLWE
 70
    -2
  9
$DIMTMOVE
 70
     1
  9
$LUNITS
 70
     2
  9
$LUPREC
 70
     4
  9
$SKETCHINC
 40
0.1
  9
$FILLETRAD
 40
0.0
  9
$AUNITS
 70
     0
  9
$AUPREC
 70
     0
  9
$MENU
  1
ACAD
  9
$ELEVATION
 40
0.0
  9
$PELEVATION
 40
0.0
  9
$THICKNESS
 40
0.0
  9
$LIMCHECK
 70
     0
  9
$CHAMFERA
 40
0.0
  9
$CHAMFERB
 40
0.0
  9
$CHAMFERC
 40
0.0
  9
$CHAMFERD
 40
0.0
  9
$SKPOLY
 70
     0
  9
$TDCREATE
 40
2453042.595653843
  9
$TDUCREATE
 40
2453042.803987176
  9
$TDUPDATE
 40
2453597.755417048
  9
$TDUUPDATE
 40
2453597.963750381
  9
$TDINDWG
 40
0.3126050463
  9
$TDUSRTIMER
 40
0.3126050463
  9
$USRTIMER
 70
     1
  9
$ANGBASE
 50
0.0
  9
$ANGDIR
 70
     0
  9
$PDMODE
 70
     3
  9
$PDSIZE
 40
2.5
  9
$PLINEWID
 40
0.0
  9
$SPLFRAME
 70
     1
  9
$SPLINETYPE
 70
     6
  9
$SPLINESEGS
 70
     8
  9
$HANDSEED
  5
5B4AC
  9
$SURFTAB1
 70
     6
  9
$SURFTAB2
 70
     6
  9
$SURFTYPE
 70
     6
  9
$SURFU
 70
     6
  9
$SURFV
 70
     6
  9
$UCSBASE
  2

  9
$UCSNAME
  2

  9
$UCSORG
 10
266.8673580196576
 20
8.203180508612135
 30
3.646124999999996
  9
$UCSXDIR
 10
1.0
 20
0.0
 30
0.0
  9
$UCSYDIR
 10
0.0
 20
1.0
 30
0.0
  9
$UCSORTHOREF
  2

  9
$UCSORTHOVIEW
 70
     1
  9
$UCSORGTOP
 10
266.8673580196576
 20
8.203180508612135
 30
3.646124999999996
  9
$UCSORGBOTTOM
 10
0.0
 20
0.0
 30
0.0
  9
$UCSORGLEFT
 10
0.0
 20
0.0
 30
0.0
  9
$UCSORGRIGHT
 10
44.57293710473379
 20
-10.57239502465733
 30
3.810000000000003
  9
$UCSORGFRONT
 10
0.0
 20
0.0
 30
0.0
  9
$UCSORGBACK
 10
0.0
 20
0.0
 30
0.0
  9
$PUCSBASE
  2

  9
$PUCSNAME
  2

  9
$PUCSORG
 10
0.0
 20
0.0
 30
0.0
  9
$PUCSXDIR
 10
1.0
 20
0.0
 30
0.0
  9
$PUCSYDIR
 10
0.0
 20
1.0
 30
0.0
  9
$PUCSORTHOREF
  2

  9
$PUCSORTHOVIEW
 70
     0
  9
$PUCSORGTOP
 10
0.0
 20
0.0
 30
0.0
  9
$PUCSORGBOTTOM
 10
0.0
 20
0.0
 30
0.0
  9
$PUCSORGLEFT
 10
0.0
 20
0.0
 30
0.0
  9
$PUCSORGRIGHT
 10
0.0
 20
0.0
 30
0.0
  9
$PUCSORGFRONT
 10
0.0
 20
0.0
 30
0.0
  9
$PUCSORGBACK
 10
0.0
 20
0.0
 30
0.0
  9
$USERI1
 70
     0
  9
$USERI2
 70
     0
  9
$USERI3
 70
     0
  9
$USERI4
 70
     0
  9
$USERI5
 70
     0
  9
$USERR1
 40
0.0
  9
$USERR2
 40
0.0
  9
$USERR3
 40
0.0
  9
$USERR4
 40
0.0
  9
$USERR5
 40
0.0
  9
$WORLDVIEW
 70
     1
  9
$SHADEDGE
 70
     3
  9
$SHADEDIF
 70
    70
  9
$TILEMODE
 70
     0
  9
$MAXACTVP
 70
    16
  9
$PINSBASE
 10
0.0
 20
0.0
 30
0.0
  9
$PLIMCHECK
 70
     0
  9
$PEXTMIN
 10
25.88717061955833
 20
19.5
 30
0.0
  9
$PEXTMAX
 10
231.1536386921643
 20
192.0586136734827
 30
0.0
  9
$PLIMMIN
 10
8.931840085394117
 20
13.38571885179438
  9
$PLIMMAX
 10
248.0681737907302
 20
198.1728846186557
  9
$UNITMODE
 70
     0
  9
$VISRETAIN
 70
     0
  9
$PLINEGEN
 70
     0
  9
$PSLTSCALE
 70
     1
  9
$TREEDEPTH
 70
  3020
  9
$CMLSTYLE
  2
STANDARD
  9
$CMLJUST
 70
     0
  9
$CMLSCALE
 40
1.0
  9
$PROXYGRAPHICS
 70
     1
  9
$MEASUREMENT
 70
     1
  9
$CELWEIGHT
370
    -1
  9
$ENDCAPS
280
     0
  9
$JOINSTYLE
280
     0
  9
$LWDISPLAY
290
     0
  9
$INSUNITS
 70
     0
  9
$HYPERLINKBASE
  1

  9
$STYLESHEET
  1

  9
$XEDIT
290
     1
  9
$CEPSNTYPE
380
     0
  9
$PSTYLEMODE
290
     1
  9
$FINGERPRINTGUID
  2
{6E0CF4B8-225E-11D4-A150-00A0CC3303EC}
  9
$VERSIONGUID
  2
{562131E8-B6D7-412C-A1C4-DADB74F46E9E}
  9
$EXTNAMES
290
     1
  9
$PSVPSCALE
 40
0.0
  9
$OLESTARTUP
290
     0
  0
ENDSEC
  0
SECTION
  2
CLASSES
  0
CLASS
  1
DICTIONARYVAR
  2
AcDbDictionaryVar
  3
AutoCAD 2000
 90
        0
280
     0
281
     0
  0
CLASS
  1
ACDBDICTIONARYWDFLT
  2
AcDbDictionaryWithDefault
  3
AutoCAD 2000
 90
        0
280
     0
281
     0
  0
CLASS
  1
ACDBPLACEHOLDER
  2
AcDbPlaceHolder
  3
AutoCAD 2000
 90
        0
280
     0
281
     0
  0
CLASS
  1
LAYOUT
  2
AcDbLayout
  3
AutoCAD 2000
 90
        0
280
     0
281
     0
  0
CLASS
  1
LONG_TRANSACTION
  2
AcDbLongTransaction
  3
AutoCAD 2000
 90
    32768
280
     0
281
     0
  0
CLASS
  1
LWPOLYLINE
  2
AcDbPolyline
  3
AutoCAD 2000
 90
    32768
280
     0
281
     1
  0
CLASS
  1
HATCH
  2
AcDbHatch
  3
AutoCAD 2000
 90
    32768
280
     0
281
     1
  0
CLASS
  1
XRECORD
  2
AcDbXrecord
  3
AutoCAD 2000
 90
    32768
280
     0
281
     0
  0
CLASS
  1
LONG_TRANSACTION
  2
AcDbLongTransaction
  3
AutoCAD 2000
 90
    32768
280
     0
281
     0
  0
CLASS
  1
LWPOLYLINE
  2
AcDbPolyline
  3
AutoCAD 2000
 90
    32768
280
     0
281
     1
  0
CLASS
  1
HATCH
  2
AcDbHatch
  3
AutoCAD 2000
 90
    32768
280
     0
281
     1
  0
CLASS
  1
XRECORD
  2
AcDbXrecord
  3
AutoCAD 2000
 90
    32768
280
     0
281
     0
  0
CLASS
  1
TABLESTYLE
  2
AcDbTableStyle
  3
ObjectDBX Classes
 90
     2047
280
     0
281
     0
  0
CLASS
  1
SORTENTSTABLE
  2
AcDbSortentsTable
  3
AutoCAD 2000
 90
    32768
280
     0
281
     0
  0
ENDSEC
  0
SECTION
  2
TABLES
  0
TABLE
  2
VPORT
  5
458C7
330
0
100
AcDbSymbolTable
 70
     1
  0
VPORT
  5
5B49D
330
458C7
100
AcDbSymbolTableRecord
100
AcDbViewportTableRecord
  2
*Active
 70
     0
 10
0.0
 20
0.0
 11
1.0
 21
1.0
 12
688.6479192580761
 22
412.1284470357725
 13
0.0
 23
0.0
 14
0.25
 24
0.25
 15
0.25
 25
0.25
 16
0.0
 26
0.0
 36
1.0
 17
272.824838996967
 27
8.306349224220612
 37
23.31369335295995
 40
195.055249914707
 41
2.029914529914529
 42
50.0
 43
0.0
 44
0.0
 50
0.0
 51
0.0
 71
     0
 72
 20000
 73
     1
 74
     1
 75
     0
 76
     0
 77
     0
 78
     0
281
     0
 65
     1
110
266.8673580196576
120
8.203180508612135
130
3.646124999999996
111
1.0
121
0.0
131
0.0
112
0.0
122
1.0
132
0.0
 79
     1
146
0.0
  0
ENDTAB
  0
TABLE
  2
LTYPE
  5
458C4
330
0
100
AcDbSymbolTable
 70
     4
  0
LTYPE
  5
458D0
330
458C4
100
AcDbSymbolTableRecord
100
AcDbLinetypeTableRecord
  2
BYBLOCK
 70
     0
  3

 72
    65
 73
     0
 40
0.0
  0
LTYPE
  5
458D1
330
458C4
100
AcDbSymbolTableRecord
100
AcDbLinetypeTableRecord
  2
BYLAYER
 70
     0
  3

 72
    65
 73
     0
 40
0.0
  0
LTYPE
  5
458D2
330
458C4
100
AcDbSymbolTableRecord
100
AcDbLinetypeTableRecord
  2
CONTINUOUS
 70
     0
  3
Solid line
 72
    65
 73
     0
 40
0.0
  0
LTYPE
  5
4D249
330
458C4
100
AcDbSymbolTableRecord
100
AcDbLinetypeTableRecord
  2
PHANTOM
 70
     0
  3
______  __  __  ______  __  __  ______  __  __ 
 72
    65
 73
     6
 40
2.5
 49
1.25
 74
     0
 49
-0.25
 74
     0
 49
0.25
 74
     0
 49
-0.25
 74
     0
 49
0.25
 74
     0
 49
-0.25
 74
     0
  0
LTYPE
  5
4DE42
330
458C4
100
AcDbSymbolTableRecord
100
AcDbLinetypeTableRecord
  2
CENTER
 70
     0
  3
____ _ ____ _ ____ _ ____ _ ____ _ ____ _ ____
 72
    65
 73
     4
 40
2.0
 49
1.25
 74
     0
 49
-0.25
 74
     0
 49
0.25
 74
     0
 49
-0.25
 74
     0
  0
LTYPE
  5
4DE43
330
458C4
100
AcDbSymbolTableRecord
100
AcDbLinetypeTableRecord
  2
HIDDEN
 70
     0
  3
Hidden __ __ __ __ __ __ __ __ __ __ __ __ __ _
 72
    65
 73
     2
 40
0.375
 49
0.25
 74
     0
 49
-0.125
 74
     0
  0
ENDTAB
  0
TABLE
  2
LAYER
  5
458C1
102
{ACAD_XDICTIONARY
360
480DB
102
}
330
0
100
AcDbSymbolTable
 70
    10
  0
LAYER
  5
458CD
330
458C1
100
AcDbSymbolTableRecord
100
AcDbLayerTableRecord
  2
0
 70
     0
 62
     7
  6
CONTINUOUS
370
    -3
390
458FA
  0
LAYER
  5
458EB
330
458C1
100
AcDbSymbolTableRecord
100
AcDbLayerTableRecord
  2
ATTRIBUTES
 70
     0
 62
    -7
  6
CONTINUOUS
370
    -3
390
458FA
  0
LAYER
  5
4593F
330
458C1
100
AcDbSymbolTableRecord
100
AcDbLayerTableRecord
  2
AREA1
 70
     0
 62
     7
  6
CONTINUOUS
370
    -3
390
458FA
  0
LAYER
  5
45946
330
458C1
100
AcDbSymbolTableRecord
100
AcDbLayerTableRecord
  2
Defpoints
 70
     0
 62
     7
  6
CONTINUOUS
290
     0
370
    -3
390
458FA
  0
LAYER
  5
45972
330
458C1
100
AcDbSymbolTableRecord
100
AcDbLayerTableRecord
  2
SCALE
 70
     0
 62
    -7
  6
CONTINUOUS
370
    -3
390
458FA
  0
LAYER
  5
46E1B
330
458C1
100
AcDbSymbolTableRecord
100
AcDbLayerTableRecord
  2
OBJECT
 70
     0
 62
     7
  6
CONTINUOUS
370
    -3
390
458FA
  0
LAYER
  5
4DE44
330
458C1
100
AcDbSymbolTableRecord
100
AcDbLayerTableRecord
  2
DIMS
 70
     0
 62
     1
  6
CONTINUOUS
370
    -3
390
458FA
  0
LAYER
  5
5034A
330
458C1
100
AcDbSymbolTableRecord
100
AcDbLayerTableRecord
  2
CENTER
 70
     0
 62
     1
  6
CENTER
370
    -3
390
458FA
  0
LAYER
  5
56706
330
458C1
100
AcDbSymbolTableRecord
100
AcDbLayerTableRecord
  2
TESTPROBE
 70
     0
 62
     7
  6
CONTINUOUS
370
    -3
390
458FA
  0
LAYER
  5
5834A
330
458C1
100
AcDbSymbolTableRecord
100
AcDbLayerTableRecord
  2
HIDDEN
 70
     0
 62
     5
  6
HIDDEN
370
    -3
390
458FA
  0
ENDTAB
  0
TABLE
  2
STYLE
  5
458C2
330
0
100
AcDbSymbolTable
 70
     3
  0
STYLE
  5
458CE
330
458C2
100
AcDbSymbolTableRecord
100
AcDbTextStyleTableRecord
  2
STANDARD
 70
     0
 40
0.0
 41
1.0
 50
0.0
 71
     0
 42
0.12
  3
txt
  4

  0
STYLE
  5
46E1C
330
458C2
100
AcDbSymbolTableRecord
100
AcDbTextStyleTableRecord
  2
ROMANS
 70
     0
 40
0.0
 41
1.0
 50
0.0
 71
     0
 42
0.125
  3
romans
  4

  0
STYLE
  5
5401D
330
458C2
100
AcDbSymbolTableRecord
100
AcDbTextStyleTableRecord
  2
ROMANC
 70
     0
 40
0.0
 41
1.0
 50
0.0
 71
     0
 42
0.2
  3
romanc
  4

  0
ENDTAB
  0
TABLE
  2
VIEW
  5
458C5
330
0
100
AcDbSymbolTable
 70
     0
  0
ENDTAB
  0
TABLE
  2
UCS
  5
458C6
330
0
100
AcDbSymbolTable
 70
     0
  0
ENDTAB
  0
TABLE
  2
APPID
  5
458C8
330
0
100
AcDbSymbolTable
 70
     9
  0
APPID
  5
458CF
330
458C8
100
AcDbSymbolTableRecord
100
AcDbRegAppTableRecord
  2
ACAD
 70
     0
  0
APPID
  5
480E0
330
458C8
100
AcDbSymbolTableRecord
100
AcDbRegAppTableRecord
  2
ACAD_PSEXT
 70
     0
  0
APPID
  5
4DE46
330
458C8
100
AcDbSymbolTableRecord
100
AcDbRegAppTableRecord
  2
GENIUS_GENODEF_13
 70
     0
  0
APPID
  5
4DE47
330
458C8
100
AcDbSymbolTableRecord
100
AcDbRegAppTableRecord
  2
GENIUS_GENOBJ-N-CEN_13
 70
     0
  0
APPID
  5
4DE48
330
458C8
100
AcDbSymbolTableRecord
100
AcDbRegAppTableRecord
  2
GENIUS_GENOBJ-N-FIL_13
 70
     0
  0
APPID
  5
4DE49
330
458C8
100
AcDbSymbolTableRecord
100
AcDbRegAppTableRecord
  2
GENIUS_GENREC_13
 70
     0
  0
APPID
  5
4DE4A
330
458C8
100
AcDbSymbolTableRecord
100
AcDbRegAppTableRecord
  2
GENIUS_GENOBJ-N-REC_13
 70
     0
  0
APPID
  5
59F0D
330
458C8
100
AcDbSymbolTableRecord
100
AcDbRegAppTableRecord
  2
DCO15
 70
     0
  0
APPID
  5
5B020
330
458C8
100
AcDbSymbolTableRecord
100
AcDbRegAppTableRecord
  2
ACAD_DSTYLE_DIMTEXT_FILL
 70
     0
  0
ENDTAB
  0
TABLE
  2
DIMSTYLE
  5
458C9
330
0
100
AcDbSymbolTable
 70
     2
100
AcDbDimStyleTable
 71
     1
340
458F6
  0
DIMSTYLE
105
458F6
102
{ACAD_REACTORS
330
5B11A
330
5B129
330
5B136
330
5B145
330
5B153
330
5B18A
330
5B37C
330
5B398
330
5B3B8
330
5B3CB
102
}
330
458C9
100
AcDbSymbolTableRecord
100
AcDbDimStyleTableRecord
  2
ABECAD_3D
 70
     0
 41
4.572
 42
1.587499999999999
 43
9.525
 44
4.572
 78
     4
140
4.572
141
2.286
143
0.03937
146
1.5
147
2.286
170
     1
171
     6
271
     2
272
     2
273
     7
274
     6
276
     2
279
     1
284
     4
285
     4
286
     4
288
     1
289
     2
340
458CE
  0
DIMSTYLE
105
459E0
330
458C9
100
AcDbSymbolTableRecord
100
AcDbDimStyleTableRecord
  2
Standard
 70
     0
340
458CE
  0
ENDTAB
  0
TABLE
  2
BLOCK_RECORD
  5
458C0
330
0
100
AcDbSymbolTable
 70
    13
  0
BLOCK_RECORD
  5
458D6
102
{ACAD_XDICTIONARY
360
45930
102
}
330
458C0
100
AcDbSymbolTableRecord
100
AcDbBlockTableRecord
  2
*MODEL_SPACE
340
458FD
  0
BLOCK_RECORD
  5
458D3
102
{ACAD_XDICTIONARY
360
4592E
102
}
330
458C0
100
AcDbSymbolTableRecord
100
AcDbBlockTableRecord
  2
*PAPER_SPACE
340
458FE
  0
BLOCK_RECORD
  5
5B11B
330
458C0
100
AcDbSymbolTableRecord
100
AcDbBlockTableRecord
  2
*D3
340
0
  0
BLOCK_RECORD
  5
5B12A
330
458C0
100
AcDbSymbolTableRecord
100
AcDbBlockTableRecord
  2
*D4
340
0
  0
BLOCK_RECORD
  5
5B137
330
458C0
100
AcDbSymbolTableRecord
100
AcDbBlockTableRecord
  2
*D5
340
0
  0
BLOCK_RECORD
  5
5B146
330
458C0
100
AcDbSymbolTableRecord
100
AcDbBlockTableRecord
  2
*D6
340
0
  0
BLOCK_RECORD
  5
5B154
330
458C0
100
AcDbSymbolTableRecord
100
AcDbBlockTableRecord
  2
*D7
340
0
  0
BLOCK_RECORD
  5
5B18B
330
458C0
100
AcDbSymbolTableRecord
100
AcDbBlockTableRecord
  2
*D8
340
0
  0
BLOCK_RECORD
  5
5B37D
330
458C0
100
AcDbSymbolTableRecord
100
AcDbBlockTableRecord
  2
*D9
340
0
  0
BLOCK_RECORD
  5
5B399
330
458C0
100
AcDbSymbolTableRecord
100
AcDbBlockTableRecord
  2
*D10
340
0
  0
BLOCK_RECORD
  5
5B3B9
330
458C0
100
AcDbSymbolTableRecord
100
AcDbBlockTableRecord
  2
*D11
340
0
  0
BLOCK_RECORD
  5
5B3CC
330
458C0
100
AcDbSymbolTableRecord
100
AcDbBlockTableRecord
  2
*D12
340
0
  0
ENDTAB
  0
ENDSEC
  0
SECTION
  2
BLOCKS
  0
BLOCK
  5
458DF
330
458D6
100
AcDbEntity
  8
0
100
AcDbBlockBegin
  2
*MODEL_SPACE
 70
     0
 10
0.0
 20
0.0
 30
0.0
  3
*MODEL_SPACE
  1

  0
ENDBLK
  5
458E0
330
458D6
100
AcDbEntity
  8
0
100
AcDbBlockEnd
  0
BLOCK
  5
458DD
330
458D3
100
AcDbEntity
 67
     1
  8
0
100
AcDbBlockBegin
  2
*PAPER_SPACE
 70
     0
 10
0.0
 20
0.0
 30
0.0
  3
*PAPER_SPACE
  1

  0
ENDBLK
  5
458DE
330
458D3
100
AcDbEntity
 67
     1
  8
0
100
AcDbBlockEnd
  0
BLOCK
  5
5B125
330
5B11B
100
AcDbEntity
  8
0
100
AcDbBlockBegin
  2
*D3
 70
     1
 10
0.0
 20
0.0
 30
0.0
  3
*D3
  1

  0
LINE
  5
5B11C
330
5B11B
100
AcDbEntity
  8
AREA1
 62
     0
370
    -2
100
AcDbLine
 10
1023.785475841503
 20
353.0536969198664
 30
0.0
 11
1023.785475841503
 21
338.3715333905675
 31
0.0
  0
LINE
  5
5B11D
330
5B11B
100
AcDbEntity
  8
AREA1
 62
     0
370
    -2
100
AcDbLine
 10
1053.503475841504
 20
354.9586969198662
 30
0.0
 11
1053.503475841504
 21
338.3715333905675
 31
0.0
  0
LINE
  5
5B11E
330
5B11B
100
AcDbEntity
  8
AREA1
 62
     0
370
    -2
100
AcDbLine
 10
1028.357475841503
 20
342.9435333905675
 30
0.0
 11
1048.931475841504
 21
342.9435333905675
 31
0.0
  0
MTEXT
  5
5B11F
330
5B11B
100
AcDbEntity
  8
AREA1
 62
     0
100
AcDbMText
 10
1087.621779286112
 20
342.9435333905675
 30
0.0
 40
4.572
 41
0.0
 71
     5
 72
     1
  1
\A1;29.72 [1 11/64]
 73
     1
 44
1.0
1001
ACAD
1000
MTEXTBEGIN
1070
    73
1070
     1
1070
    44
1040
1.0
1070
    74
1070
     0
1000
MTEXTEND
  0
SOLID
  5
5B120
330
5B11B
100
AcDbEntity
  8
AREA1
 62
     0
100
AcDbTrace
 10
1028.357475841503
 20
343.7055333905675
 30
0.0
 11
1028.357475841503
 21
342.1815333905675
 31
0.0
 12
1023.785475841503
 22
342.9435333905675
 32
0.0
 13
1023.785475841503
 23
342.9435333905675
 33
0.0
  0
SOLID
  5
5B121
330
5B11B
100
AcDbEntity
  8
AREA1
 62
     0
100
AcDbTrace
 10
1048.931475841504
 20
343.7055333905675
 30
0.0
 11
1048.931475841504
 21
342.1815333905675
 31
0.0
 12
1053.503475841504
 22
342.9435333905675
 32
0.0
 13
1053.503475841504
 23
342.9435333905675
 33
0.0
  0
POINT
  5
5B122
330
5B11B
100
AcDbEntity
  8
Defpoints
 62
     0
100
AcDbPoint
 10
1023.785475841503
 20
354.6411969198664
 30
0.0
  0
POINT
  5
5B123
330
5B11B
100
AcDbEntity
  8
Defpoints
 62
     0
100
AcDbPoint
 10
1053.503475841504
 20
356.5461969198661
 30
0.0
  0
POINT
  5
5B124
330
5B11B
100
AcDbEntity
  8
Defpoints
 62
     0
100
AcDbPoint
 10
1053.503475841504
 20
342.9435333905675
 30
0.0
  0
ENDBLK
  5
5B126
330
5B11B
100
AcDbEntity
  8
0
100
AcDbBlockEnd
  0
BLOCK
  5
5B134
330
5B12A
100
AcDbEntity
  8
0
100
AcDbBlockBegin
  2
*D4
 70
     1
 10
0.0
 20
0.0
 30
0.0
  3
*D4
  1

  0
LINE
  5
5B12B
330
5B12A
100
AcDbEntity
  8
AREA1
 62
     0
370
    -2
100
AcDbLine
 10
1012.878419481668
 20
339.9972833139176
 30
0.0
 11
1012.878419481668
 21
324.1390991968377
 31
0.0
  0
LINE
  5
5B12C
330
5B12A
100
AcDbEntity
  8
AREA1
 62
     0
370
    -2
100
AcDbLine
 10
1053.503475841504
 20
353.3711969198662
 30
0.0
 11
1053.503475841504
 21
324.1390991968377
 31
0.0
  0
LINE
  5
5B12D
330
5B12A
100
AcDbEntity
  8
AREA1
 62
     0
370
    -2
100
AcDbLine
 10
1017.450419481668
 20
328.7110991968377
 30
0.0
 11
1048.931475841504
 21
328.7110991968377
 31
0.0
  0
MTEXT
  5
5B12E
330
5B12A
100
AcDbEntity
  8
AREA1
 62
     0
100
AcDbMText
 10
1087.128223055704
 20
328.7110991968377
 30
0.0
 40
4.572
 41
0.0
 71
     5
 72
     1
  1
\A1;40.63 [1 19/32]
 73
     1
 44
1.0
1001
ACAD
1000
MTEXTBEGIN
1070
    73
1070
     1
1070
    44
1040
1.0
1070
    74
1070
     0
1000
MTEXTEND
  0
SOLID
  5
5B12F
330
5B12A
100
AcDbEntity
  8
AREA1
 62
     0
100
AcDbTrace
 10
1017.450419481668
 20
329.4730991968378
 30
0.0
 11
1017.450419481668
 21
327.9490991968377
 31
0.0
 12
1012.878419481668
 22
328.7110991968377
 32
0.0
 13
1012.878419481668
 23
328.7110991968377
 33
0.0
  0
SOLID
  5
5B130
330
5B12A
100
AcDbEntity
  8
AREA1
 62
     0
100
AcDbTrace
 10
1048.931475841504
 20
329.4730991968378
 30
0.0
 11
1048.931475841504
 21
327.9490991968377
 31
0.0
 12
1053.503475841504
 22
328.7110991968377
 32
0.0
 13
1053.503475841504
 23
328.7110991968377
 33
0.0
  0
POINT
  5
5B131
330
5B12A
100
AcDbEntity
  8
Defpoints
 62
     0
100
AcDbPoint
 10
1012.878419481668
 20
341.5847833139176
 30
0.0
  0
POINT
  5
5B132
330
5B12A
100
AcDbEntity
  8
Defpoints
 62
     0
100
AcDbPoint
 10
1053.503475841504
 20
354.9586969198662
 30
0.0
  0
POINT
  5
5B133
330
5B12A
100
AcDbEntity
  8
Defpoints
 62
     0
100
AcDbPoint
 10
1053.503475841504
 20
328.7110991968377
 30
0.0
  0
ENDBLK
  5
5B135
330
5B12A
100
AcDbEntity
  8
0
100
AcDbBlockEnd
  0
BLOCK
  5
5B142
330
5B137
100
AcDbEntity
  8
0
100
AcDbBlockBegin
  2
*D5
 70
     1
 10
0.0
 20
0.0
 30
0.0
  3
*D5
  1

  0
LINE
  5
5B1F6
330
5B137
100
AcDbEntity
  8
AREA1
 62
     0
370
    -2
100
AcDbLine
 10
1053.185975841504
 20
405.4411969198667
 30
0.0
 11
1071.771070395453
 21
405.4411969198667
 31
0.0
  0
LINE
  5
5B1F7
330
5B137
100
AcDbEntity
  8
AREA1
 62
     0
370
    -2
100
AcDbLine
 10
1052.751330253832
 20
354.6411969198664
 30
0.0
 11
1071.771070395453
 21
354.6411969198664
 31
0.0
  0
LINE
  5
5B1F8
330
5B137
100
AcDbEntity
  8
AREA1
 62
     0
370
    -2
100
AcDbLine
 10
1067.199070395453
 20
400.8691969198666
 30
0.0
 11
1067.199070395453
 21
398.3291969198664
 31
0.0
  0
LINE
  5
5B1F9
330
5B137
100
AcDbEntity
  8
AREA1
 62
     0
370
    -2
100
AcDbLine
 10
1067.199070395453
 20
359.2131969198664
 30
0.0
 11
1067.199070395453
 21
361.7531969198664
 31
0.0
  0
MTEXT
  5
5B1FA
330
5B137
100
AcDbEntity
  8
AREA1
 62
     0
100
AcDbMText
 10
1067.199070395453
 20
380.0411969198666
 30
0.0
 40
4.572
 41
0.0
 71
     5
 72
     1
  1
\A1;50.80 [2]
 11
0.0000000000000001
 21
1.0
 31
0.0
 73
     1
 44
1.0
1001
ACAD
1000
MTEXTBEGIN
1070
    73
1070
     1
1070
    44
1040
1.0
1070
    74
1070
     0
1000
MTEXTEND
  0
SOLID
  5
5B1FB
330
5B137
100
AcDbEntity
  8
AREA1
 62
     0
100
AcDbTrace
 10
1066.437070395453
 20
400.8691969198666
 30
0.0
 11
1067.961070395453
 21
400.8691969198666
 31
0.0
 12
1067.199070395453
 22
405.4411969198667
 32
0.0
 13
1067.199070395453
 23
405.4411969198667
 33
0.0
  0
SOLID
  5
5B1FC
330
5B137
100
AcDbEntity
  8
AREA1
 62
     0
100
AcDbTrace
 10
1066.437070395453
 20
359.2131969198664
 30
0.0
 11
1067.961070395453
 21
359.2131969198664
 31
0.0
 12
1067.199070395453
 22
354.6411969198664
 32
0.0
 13
1067.199070395453
 23
354.6411969198664
 33
0.0
  0
POINT
  5
5B1FD
330
5B137
100
AcDbEntity
  8
Defpoints
 62
     0
100
AcDbPoint
 10
1051.598475841504
 20
405.4411969198667
 30
0.0
  0
POINT
  5
5B1FE
330
5B137
100
AcDbEntity
  8
Defpoints
 62
     0
100
AcDbPoint
 10
1051.163830253832
 20
354.6411969198664
 30
0.0
  0
POINT
  5
5B1FF
330
5B137
100
AcDbEntity
  8
Defpoints
 62
     0
100
AcDbPoint
 10
1067.199070395453
 20
354.6411969198664
 30
0.0
  0
ENDBLK
  5
5B143
330
5B137
100
AcDbEntity
  8
0
100
AcDbBlockEnd
  0
BLOCK
  5
5B151
330
5B146
100
AcDbEntity
  8
0
100
AcDbBlockBegin
  2
*D6
 70
     1
 10
0.0
 20
0.0
 30
0.0
  3
*D6
  1

  0
LINE
  5
5B1C0
330
5B146
100
AcDbEntity
  8
AREA1
 62
     0
370
    -2
100
AcDbLine
 10
1023.785475841503
 20
407.0286969198664
 30
0.0
 11
1023.785475841503
 21
425.4720806855512
 31
0.0
  0
LINE
  5
5B1C1
330
5B146
100
AcDbEntity
  8
AREA1
 62
     0
370
    -2
100
AcDbLine
 10
1028.357475841502
 20
407.0286969198664
 30
0.0
 11
1028.357475841502
 21
425.4720806855512
 31
0.0
  0
LINE
  5
5B1C2
330
5B146
100
AcDbEntity
  8
AREA1
 62
     0
370
    -2
100
AcDbLine
 10
1019.213475841503
 20
420.9000806855511
 30
0.0
 11
1014.641475841503
 21
420.9000806855511
 31
0.0
  0
LINE
  5
5B1C3
330
5B146
100
AcDbEntity
  8
AREA1
 62
     0
370
    -2
100
AcDbLine
 10
1032.929475841502
 20
420.9000806855511
 30
0.0
 11
1037.501475841502
 21
420.9000806855511
 31
0.0
  0
LINE
  5
5B1C4
330
5B146
100
AcDbEntity
  8
AREA1
 62
     0
370
    -2
100
AcDbLine
 10
1012.337291043744
 20
420.9000806855511
 30
0.0
 11
1023.785475841503
 21
420.9000806855511
 31
0.0
  0
MTEXT
  5
5B1C5
330
5B146
100
AcDbEntity
  8
AREA1
 62
     0
100
AcDbMText
 10
989.4772910437447
 20
420.9000806855511
 30
0.0
 40
4.572
 41
0.0
 71
     5
 72
     1
  1
\A1;4.57 [3/16]
 73
     1
 44
1.0
1001
ACAD
1000
MTEXTBEGIN
1070
    73
1070
     1
1070
    44
1040
1.0
1070
    74
1070
     0
1000
MTEXTEND
  0
LINE
  5
5B1C6
330
5B146
100
AcDbEntity
  8
AREA1
 62
     0
370
    -2
100
AcDbLine
 10
1023.785475841503
 20
420.9000806855511
 30
0.0
 11
1028.357475841502
 21
420.9000806855511
 31
0.0
  0
SOLID
  5
5B1C7
330
5B146
100
AcDbEntity
  8
AREA1
 62
     0
100
AcDbTrace
 10
1019.213475841503
 20
421.6620806855511
 30
0.0
 11
1019.213475841503
 21
420.1380806855511
 31
0.0
 12
1023.785475841503
 22
420.9000806855511
 32
0.0
 13
1023.785475841503
 23
420.9000806855511
 33
0.0
  0
SOLID
  5
5B1C8
330
5B146
100
AcDbEntity
  8
AREA1
 62
     0
100
AcDbTrace
 10
1032.929475841502
 20
421.6620806855511
 30
0.0
 11
1032.929475841502
 21
420.1380806855511
 31
0.0
 12
1028.357475841502
 22
420.9000806855511
 32
0.0
 13
1028.357475841502
 23
420.9000806855511
 33
0.0
  0
POINT
  5
5B1C9
330
5B146
100
AcDbEntity
  8
Defpoints
 62
     0
100
AcDbPoint
 10
1023.785475841503
 20
405.4411969198664
 30
0.0
  0
POINT
  5
5B1CA
330
5B146
100
AcDbEntity
  8
Defpoints
 62
     0
100
AcDbPoint
 10
1028.357475841502
 20
405.4411969198664
 30
0.0
  0
POINT
  5
5B1CB
330
5B146
100
AcDbEntity
  8
Defpoints
 62
     0
100
AcDbPoint
 10
1028.357475841502
 20
420.9000806855511
 30
0.0
  0
ENDBLK
  5
5B152
330
5B146
100
AcDbEntity
  8
0
100
AcDbBlockEnd
  0
BLOCK
  5
5B15F
330
5B154
100
AcDbEntity
  8
0
100
AcDbBlockBegin
  2
*D7
 70
     1
 10
0.0
 20
0.0
 30
0.0
  3
*D7
  1

  0
LINE
  5
5B214
330
5B154
100
AcDbEntity
  8
AREA1
 62
     0
370
    -2
100
AcDbLine
 10
1049.640942414726
 20
516.5752704735648
 30
0.0
 11
1055.937834128115
 21
516.5752704735648
 31
0.0
  0
LINE
  5
5B215
330
5B154
100
AcDbEntity
  8
AREA1
 62
     0
370
    -2
100
AcDbLine
 10
1050.106225841504
 20
405.4411969198667
 30
0.0
 11
1055.937834128115
 21
405.4411969198667
 31
0.0
  0
LINE
  5
5B216
330
5B154
100
AcDbEntity
  8
AREA1
 62
     0
370
    -2
100
AcDbLine
 10
1051.365834128116
 20
512.0032704735648
 30
0.0
 11
1051.365834128115
 21
478.5342336967152
 31
0.0
  0
LINE
  5
5B217
330
5B154
100
AcDbEntity
  8
AREA1
 62
     0
370
    -2
100
AcDbLine
 10
1051.365834128115
 20
410.0131969198667
 30
0.0
 11
1051.365834128115
 21
443.4822336967152
 31
0.0
  0
MTEXT
  5
5B218
330
5B154
100
AcDbEntity
  8
AREA1
 62
     0
100
AcDbMText
 10
1051.365834128115
 20
461.0082336967153
 30
0.0
 40
4.572
 41
0.0
 71
     5
 72
     1
  1
\A1;457 [18]
 11
0.0000000000000001
 21
1.0
 31
0.0
 73
     1
 44
1.0
1001
ACAD
1000
MTEXTBEGIN
1070
    73
1070
     1
1070
    44
1040
1.0
1070
    74
1070
     0
1000
MTEXTEND
  0
SOLID
  5
5B219
330
5B154
100
AcDbEntity
  8
AREA1
 62
     0
100
AcDbTrace
 10
1050.603834128116
 20
512.0032704735648
 30
0.0
 11
1052.127834128115
 21
512.0032704735648
 31
0.0
 12
1051.365834128116
 22
516.5752704735648
 32
0.0
 13
1051.365834128116
 23
516.5752704735648
 33
0.0
  0
SOLID
  5
5B21A
330
5B154
100
AcDbEntity
  8
AREA1
 62
     0
100
AcDbTrace
 10
1050.603834128115
 20
410.0131969198667
 30
0.0
 11
1052.127834128115
 21
410.0131969198667
 31
0.0
 12
1051.365834128115
 22
405.4411969198667
 32
0.0
 13
1051.365834128115
 23
405.4411969198667
 33
0.0
  0
POINT
  5
5B21B
330
5B154
100
AcDbEntity
  8
Defpoints
 62
     0
100
AcDbPoint
 10
1048.053442414726
 20
516.5752704735648
 30
-0.0000000000000124
  0
POINT
  5
5B21C
330
5B154
100
AcDbEntity
  8
Defpoints
 62
     0
100
AcDbPoint
 10
1048.518725841504
 20
405.4411969198667
 30
0.0
  0
POINT
  5
5B21D
330
5B154
100
AcDbEntity
  8
Defpoints
 62
     0
100
AcDbPoint
 10
1051.365834128115
 20
405.4411969198667
 30
0.0
  0
ENDBLK
  5
5B160
330
5B154
100
AcDbEntity
  8
0
100
AcDbBlockEnd
  0
BLOCK
  5
5B196
330
5B18B
100
AcDbEntity
  8
0
100
AcDbBlockBegin
  2
*D8
 70
     1
 10
0.0
 20
0.0
 30
0.0
  3
*D8
  1

  0
LINE
  5
5B198
330
5B18B
100
AcDbEntity
  8
AREA1
 62
     0
370
    -2
100
AcDbLine
 10
1007.116498507401
 20
516.7163821550046
 30
0.0
 11
991.8983531418581
 21
516.7163821550046
 31
0.0
  0
LINE
  5
5B199
330
5B18B
100
AcDbEntity
  8
AREA1
 62
     0
370
    -2
100
AcDbLine
 10
1023.470515841502
 20
440.4458263142839
 30
0.0
 11
991.8983531418581
 21
440.4458263142839
 31
0.0
  0
LINE
  5
5B19A
330
5B18B
100
AcDbEntity
  8
AREA1
 62
     0
370
    -2
100
AcDbLine
 10
996.4703531418582
 20
512.1443821550045
 30
0.0
 11
996.4703531418582
 21
497.2730310510941
 31
0.0
  0
LINE
  5
5B19B
330
5B18B
100
AcDbEntity
  8
AREA1
 62
     0
370
    -2
100
AcDbLine
 10
996.4703531418582
 20
445.0178263142838
 30
0.0
 11
996.4703531418582
 21
459.1730310510941
 31
0.0
  0
MTEXT
  5
5B19C
330
5B18B
100
AcDbEntity
  8
AREA1
 62
     0
100
AcDbMText
 10
996.4703531418582
 20
478.2230310510943
 30
0.0
 40
4.572
 41
0.0
 71
     5
 72
     1
  1
\A1;76.27 [3]
 11
0.0000000000000001
 21
1.0
 31
0.0
 73
     1
 44
1.0
1001
ACAD
1000
MTEXTBEGIN
1070
    73
1070
     1
1070
    44
1040
1.0
1070
    74
1070
     0
1000
MTEXTEND
  0
SOLID
  5
5B19D
330
5B18B
100
AcDbEntity
  8
AREA1
 62
     0
100
AcDbTrace
 10
995.7083531418582
 20
512.1443821550045
 30
0.0
 11
997.2323531418581
 21
512.1443821550045
 31
0.0
 12
996.4703531418582
 22
516.7163821550046
 32
0.0
 13
996.4703531418582
 23
516.7163821550046
 33
0.0
  0
SOLID
  5
5B19E
330
5B18B
100
AcDbEntity
  8
AREA1
 62
     0
100
AcDbTrace
 10
995.7083531418582
 20
445.0178263142838
 30
0.0
 11
997.2323531418581
 21
445.0178263142838
 31
0.0
 12
996.4703531418582
 22
440.4458263142839
 32
0.0
 13
996.4703531418582
 23
440.4458263142839
 33
0.0
  0
POINT
  5
5B19F
330
5B18B
100
AcDbEntity
  8
Defpoints
 62
     0
100
AcDbPoint
 10
1008.703998507401
 20
516.7163821550046
 30
-0.0000000000000124
  0
POINT
  5
5B1A0
330
5B18B
100
AcDbEntity
  8
Defpoints
 62
     0
100
AcDbPoint
 10
1025.058015841501
 20
440.4458263142839
 30
0.0
  0
POINT
  5
5B1A1
330
5B18B
100
AcDbEntity
  8
Defpoints
 62
     0
100
AcDbPoint
 10
996.4703531418582
 20
440.4458263142839
 30
0.0
  0
ENDBLK
  5
5B197
330
5B18B
100
AcDbEntity
  8
0
100
AcDbBlockEnd
  0
BLOCK
  5
5B389
330
5B37D
100
AcDbEntity
  8
0
100
AcDbBlockBegin
  2
*D9
 70
     1
 10
0.0
 20
0.0
 30
0.0
  3
*D9
  1

  0
LINE
  5
5B40A
330
5B37D
100
AcDbEntity
  8
AREA1
 62
     0
370
    -2
100
AcDbLine
 10
924.3070710854242
 20
355.1977017733611
 30
0.0
 11
878.9050214037276
 21
355.1977017733611
 31
0.0
  0
LINE
  5
5B40B
330
5B37D
100
AcDbEntity
  8
AREA1
 62
     0
370
    -2
100
AcDbLine
 10
924.3070710854247
 20
351.8957017733611
 30
0.0
 11
878.9050214037276
 21
351.8957017733612
 31
0.0
  0
LINE
  5
5B40C
330
5B37D
100
AcDbEntity
  8
AREA1
 62
     0
370
    -2
100
AcDbLine
 10
883.4770214037277
 20
359.7697017733612
 30
0.0
 11
883.4770214037277
 21
364.3417017733611
 31
0.0
  0
LINE
  5
5B40D
330
5B37D
100
AcDbEntity
  8
AREA1
 62
     0
370
    -2
100
AcDbLine
 10
883.4770214037277
 20
347.3237017733612
 30
0.0
 11
883.4770214037277
 21
342.7517017733612
 31
0.0
  0
LINE
  5
5B40E
330
5B37D
100
AcDbEntity
  8
AREA1
 62
     0
370
    -2
100
AcDbLine
 10
878.9050214037276
 20
342.3148904261065
 30
0.0
 11
883.4770214037277
 21
342.3148904261065
 31
0.0
  0
LINE
  5
5B40F
330
5B37D
100
AcDbEntity
  8
AREA1
 62
     0
370
    -2
100
AcDbLine
 10
883.4770214037277
 20
342.3148904261065
 30
0.0
 11
883.4770214037277
 21
342.7517017733612
 31
0.0
  0
MTEXT
  5
5B410
330
5B37D
100
AcDbEntity
  8
AREA1
 62
     0
100
AcDbMText
 10
858.7120214037275
 20
342.3148904261066
 30
0.0
 40
4.572
 41
0.0
 71
     5
 72
     1
  1
\A1;3.30 [1/8]
 73
     1
 44
1.0
1001
ACAD
1000
MTEXTBEGIN
1070
    73
1070
     1
1070
    44
1040
1.0
1070
    74
1070
     0
1000
MTEXTEND
  0
SOLID
  5
5B411
330
5B37D
100
AcDbEntity
  8
AREA1
 62
     0
100
AcDbTrace
 10
882.7150214037278
 20
359.7697017733612
 30
0.0
 11
884.2390214037276
 21
359.7697017733612
 31
0.0
 12
883.4770214037277
 22
355.1977017733611
 32
0.0
 13
883.4770214037277
 23
355.1977017733611
 33
0.0
  0
SOLID
  5
5B412
330
5B37D
100
AcDbEntity
  8
AREA1
 62
     0
100
AcDbTrace
 10
882.7150214037278
 20
347.3237017733612
 30
0.0
 11
884.2390214037276
 21
347.3237017733612
 31
0.0
 12
883.4770214037277
 22
351.8957017733612
 32
0.0
 13
883.4770214037277
 23
351.8957017733612
 33
0.0
  0
POINT
  5
5B413
330
5B37D
100
AcDbEntity
  8
Defpoints
 62
     0
100
AcDbPoint
 10
925.8945710854241
 20
355.1977017733611
 30
0.0
  0
POINT
  5
5B414
330
5B37D
100
AcDbEntity
  8
Defpoints
 62
     0
100
AcDbPoint
 10
925.8945710854247
 20
351.8957017733611
 30
0.0
  0
POINT
  5
5B415
330
5B37D
100
AcDbEntity
  8
Defpoints
 62
     0
100
AcDbPoint
 10
883.4770214037277
 20
351.8957017733612
 30
0.0
  0
ENDBLK
  5
5B38A
330
5B37D
100
AcDbEntity
  8
0
100
AcDbBlockEnd
  0
BLOCK
  5
5B3A6
330
5B399
100
AcDbEntity
  8
0
100
AcDbBlockBegin
  2
*D10
 70
     1
 10
0.0
 20
0.0
 30
0.0
  3
*D10
  1

  0
LINE
  5
5B416
330
5B399
100
AcDbEntity
  8
AREA1
 62
     0
370
    -2
100
AcDbLine
 10
906.9857249042177
 20
394.6700097129606
 30
0.0
 11
879.9631378143013
 21
410.2926824088861
 31
0.0
  0
LINE
  5
5B417
330
5B399
100
AcDbEntity
  8
AREA1
 62
     0
370
    -2
100
AcDbLine
 10
904.1757515898618
 20
383.709201773361
 30
0.0
 11
872.8317454804216
 21
383.709201773361
 31
0.0
  0
ARC
  5
5B418
330
5B399
100
AcDbEntity
  8
AREA1
 62
     0
370
    -2
100
AcDbCircle
 10
925.9446695667993
 20
383.709201773361
 30
0.0
 40
48.54092408637765
100
AcDbArc
 50
155.3649430047567
 51
159.9488450547048
  0
ARC
  5
5B419
330
5B399
100
AcDbEntity
  8
AREA1
 62
     0
370
    -2
100
AcDbCircle
 10
925.9446695667993
 20
383.709201773361
 30
0.0
 40
48.54092408637765
100
AcDbArc
 50
171.1132532314411
 51
174.6013959038293
  0
SOLID
  5
5B41A
330
5B399
100
AcDbEntity
  8
AREA1
 62
     0
100
AcDbTrace
 10
881.1449638977048
 20
404.2927538199665
 30
0.0
 11
882.498797152408
 21
403.5929599085473
 31
0.0
 12
883.9212622593144
 22
408.0043566283667
 32
0.0
 13
883.9212622593144
 23
408.0043566283667
 33
0.0
  0
SOLID
  5
5B41B
330
5B399
100
AcDbEntity
  8
AREA1
 62
     0
100
AcDbTrace
 10
878.3802150627131
 20
388.2402430615044
 30
0.0
 11
876.8579060188672
 21
388.3120147482939
 31
0.0
 12
877.4037454804217
 22
383.709201773361
 32
0.0
 13
877.4037454804217
 23
383.709201773361
 33
0.0
  0
MTEXT
  5
5B41C
330
5B399
100
AcDbEntity
  8
AREA1
 62
     0
100
AcDbMText
 10
878.9285052583863
 20
395.7798937536813
 30
0.0
 40
4.572
 41
0.0
 71
     5
 72
     1
  1
\A1;30°
 73
     1
 44
1.0
1001
ACAD
1000
MTEXTBEGIN
1070
    73
1070
     1
1070
    44
1040
1.0
1070
    74
1070
     0
1000
MTEXTEND
  0
POINT
  5
5B41D
330
5B399
100
AcDbEntity
  8
Defpoints
 62
     0
100
AcDbPoint
 10
880.3376273002761
 20
400.3290395240445
 30
0.0
  0
POINT
  5
5B41E
330
5B399
100
AcDbEntity
  8
Defpoints
 62
     0
100
AcDbPoint
 10
908.3600736698471
 20
393.8754521502804
 30
0.0
  0
POINT
  5
5B41F
330
5B399
100
AcDbEntity
  8
Defpoints
 62
     0
100
AcDbPoint
 10
905.7632515898619
 20
383.709201773361
 30
0.0
  0
POINT
  5
5B420
330
5B399
100
AcDbEntity
  8
Defpoints
 62
     0
100
AcDbPoint
 10
946.2578452652602
 20
383.709201773361
 30
0.0
  0
POINT
  5
5B421
330
5B399
100
AcDbEntity
  8
Defpoints
 62
     0
100
AcDbPoint
 10
962.8570669481833
 20
362.3688948370765
 30
0.0
  0
ENDBLK
  5
5B3A7
330
5B399
100
AcDbEntity
  8
0
100
AcDbBlockEnd
  0
BLOCK
  5
5B3C1
330
5B3B9
100
AcDbEntity
  8
0
100
AcDbBlockBegin
  2
*D11
 70
     1
 10
0.0
 20
0.0
 30
0.0
  3
*D11
  1

  0
LINE
  5
5B422
330
5B3B9
100
AcDbEntity
  8
AREA1
 62
     0
370
    -2
100
AcDbLine
 10
884.4235153755432
 20
433.4748732804404
 30
0.0
 11
888.9955153755433
 21
433.4748732804405
 31
0.0
  0
LINE
  5
5B423
330
5B3B9
100
AcDbEntity
  8
AREA1
 62
     0
370
    -2
100
AcDbLine
 10
888.9955153755433
 20
433.4748732804405
 30
0.0
 11
902.7484229724379
 21
414.9263584589355
 31
0.0
  0
MTEXT
  5
5B424
330
5B3B9
100
AcDbEntity
  8
AREA1
 62
     0
100
AcDbMText
 10
847.0855153755431
 20
433.4748732804404
 30
0.0
 40
4.572
 41
0.0
 71
     5
 72
     1
  1
\A1;\U+220568.58 [\U+22052 45/64]
 73
     1
 44
1.0
1001
ACAD
1000
MTEXTBEGIN
1070
    73
1070
     1
1070
    44
1040
1.0
1070
    74
1070
     0
1000
MTEXTEND
  0
SOLID
  5
5B425
330
5B3B9
100
AcDbEntity
  8
AREA1
 62
     0
100
AcDbTrace
 10
903.3605240839197
 20
415.3802045003665
 30
0.0
 11
902.1363218609561
 21
414.4725124175043
 31
0.0
 12
905.4714992210245
 22
411.2537517900443
 32
0.0
 13
905.4714992210245
 23
411.2537517900443
 33
0.0
  0
LINE
  5
5B426
330
5B3B9
100
AcDbEntity
  8
AREA1
 62
     0
370
    -2
100
AcDbLine
 10
923.6085710854247
 20
383.709201773361
 30
0.0
 11
928.1805710854246
 21
383.7092017733612
 31
0.0
  0
LINE
  5
5B427
330
5B3B9
100
AcDbEntity
  8
AREA1
 62
     0
370
    -2
100
AcDbLine
 10
925.8945710854245
 20
381.4232017733611
 30
0.0
 11
925.8945710854245
 21
385.9952017733611
 31
0.0
  0
POINT
  5
5B428
330
5B3B9
100
AcDbEntity
  8
Defpoints
 62
     0
100
AcDbPoint
 10
905.4714992210245
 20
411.2537517900443
 30
0.0
  0
POINT
  5
5B429
330
5B3B9
100
AcDbEntity
  8
Defpoints
 62
     0
100
AcDbPoint
 10
946.3176429498245
 20
356.1646517566779
 30
0.0
  0
ENDBLK
  5
5B3C2
330
5B3B9
100
AcDbEntity
  8
0
100
AcDbBlockEnd
  0
BLOCK
  5
5B3D5
330
5B3CC
100
AcDbEntity
  8
0
100
AcDbBlockBegin
  2
*D12
 70
     1
 10
0.0
 20
0.0
 30
0.0
  3
*D12
  1

  0
LINE
  5
5B42A
330
5B3CC
100
AcDbEntity
  8
AREA1
 62
     0
370
    -2
100
AcDbLine
 10
879.0037890923636
 20
420.9780927571982
 30
0.0
 11
883.5757890923638
 21
420.9780927571982
 31
0.0
  0
LINE
  5
5B42B
330
5B3CC
100
AcDbEntity
  8
AREA1
 62
     0
370
    -2
100
AcDbLine
 10
883.5757890923638
 20
420.9780927571982
 30
0.0
 11
899.8275786902604
 21
406.6656256612502
 31
0.0
  0
MTEXT
  5
5B42C
330
5B3CC
100
AcDbEntity
  8
AREA1
 62
     0
100
AcDbMText
 10
846.6187890923638
 20
420.9780927571983
 30
0.0
 40
4.572
 41
0.0
 71
     5
 72
     1
  1
\A1;\U+220560.32 [\U+22052 3/8]
 73
     1
 44
1.0
1001
ACAD
1000
MTEXTBEGIN
1070
    73
1070
     1
1070
    44
1040
1.0
1070
    74
1070
     0
1000
MTEXTEND
  0
SOLID
  5
5B42D
330
5B3CC
100
AcDbEntity
  8
AREA1
 62
     0
100
AcDbTrace
 10
900.3311931082764
 20
407.2374792421314
 30
0.0
 11
899.3239642722446
 21
406.0937720803693
 31
0.0
 12
903.2587001755471
 22
403.6439391531551
 32
0.0
 13
903.2587001755471
 23
403.6439391531551
 33
0.0
  0
LINE
  5
5B42E
330
5B3CC
100
AcDbEntity
  8
AREA1
 62
     0
370
    -2
100
AcDbLine
 10
923.6085710854247
 20
383.7092017733611
 30
0.0
 11
928.1805710854245
 21
383.7092017733611
 31
0.0
  0
LINE
  5
5B42F
330
5B3CC
100
AcDbEntity
  8
AREA1
 62
     0
370
    -2
100
AcDbLine
 10
925.8945710854245
 20
381.423201773361
 30
0.0
 11
925.8945710854245
 21
385.9952017733612
 31
0.0
  0
POINT
  5
5B430
330
5B3CC
100
AcDbEntity
  8
Defpoints
 62
     0
100
AcDbPoint
 10
903.2587001755471
 20
403.6439391531551
 30
0.0
  0
POINT
  5
5B431
330
5B3CC
100
AcDbEntity
  8
Defpoints
 62
     0
100
AcDbPoint
 10
948.5304419953017
 20
363.7744643935668
 30
0.0
  0
ENDBLK
  5
5B3D6
330
5B3CC
100
AcDbEntity
  8
0
100
AcDbBlockEnd
  0
ENDSEC
  0
SECTION
  2
ENTITIES
  0
ATTDEF
  5
4DDB8
330
458D6
100
AcDbEntity
  8
ATTRIBUTES
100
AcDbText
 10
807.6410878649539
 20
398.900387026214
 30
3.644056121604464
 40
0.575719985847253
  1
ALLEN-BRADLEY
100
AcDbAttributeDefinition
  3
MANUFACTURER NAME?
  2
AC_VND_LABEL
 70
     1
  0
ATTDEF
  5
4DDB9
330
458D6
100
AcDbEntity
  8
ATTRIBUTES
100
AcDbText
 10
807.6410878649539
 20
397.7009703890323
 30
3.644056121604464
 40
0.575719985847253
  1
844A-*
100
AcDbAttributeDefinition
  3
CATALOG NUMBER?
  2
AC_PART_NO
 70
     1
  0
ATTDEF
  5
4DDBA
330
458D6
100
AcDbEntity
  8
ATTRIBUTES
100
AcDbText
 10
807.6410878649539
 20
396.5015537518506
 30
3.644056121604464
 40
0.575719985847253
  1
Hollow Shaft
100
AcDbAttributeDefinition
  3
PART DESCRIPTION?
  2
AC_DESCRIPTION
 70
     1
  0
ATTDEF
  5
4DDBB
330
458D6
100
AcDbEntity
  8
ATTRIBUTES
100
AcDbText
 10
807.6410878649539
 20
395.3021371146689
 30
3.644056121604464
 40
0.575719985847253
  1

100
AcDbAttributeDefinition
  3
DEVICE ID?
  2
DEVICE_ID
 70
     1
  0
ATTDEF
  5
4DDBC
330
458D6
100
AcDbEntity
  8
ATTRIBUTES
100
AcDbText
 10
807.6410878649539
 20
394.1027204774872
 30
3.644056121604464
 40
0.575719985847253
  1

100
AcDbAttributeDefinition
  3
CUSTOMER PART NUMBER?
  2
AC_CPART_NO
 70
     1
  0
ATTDEF
  5
4DDBD
330
458D6
100
AcDbEntity
  8
ATTRIBUTES
100
AcDbText
 10
807.6410878649539
 20
392.9033038403048
 30
3.644056121604464
 40
0.575719985847253
  1

100
AcDbAttributeDefinition
  3
CUSTOMER NOTE?
  2
AC_NOTE
 70
     1
  0
ATTDEF
  5
4DDBE
330
458D6
100
AcDbEntity
  8
ATTRIBUTES
100
AcDbText
 10
807.6410878649539
 20
391.7038872031231
 30
3.644056121604464
 40
0.575719985847253
  1

100
AcDbAttributeDefinition
  3
FASTENER DATA?
  2
FASTENER
 70
     1
  0
ATTDEF
  5
4DDBF
330
458D6
100
AcDbEntity
  8
ATTRIBUTES
100
AcDbText
 10
807.6410878649539
 20
390.5044705659414
 30
3.644056121604464
 40
0.575719985847253
  1
INCH
100
AcDbAttributeDefinition
  3
UNIT OF SCALE?
  2
AC_SCALE_UNIT
 70
     1
  0
ATTDEF
  5
4DDC0
330
458D6
100
AcDbEntity
  8
ATTRIBUTES
100
AcDbText
 10
807.6410878649539
 20
389.3050539287603
 30
3.644056121604464
 40
0.575719985847253
  1
0
100
AcDbAttributeDefinition
  3
VIEW CODE?
  2
AC_VIEW_CODE
 70
     1
  0
MTEXT
  5
4E0D0
330
458D6
100
AcDbEntity
  8
DIMS
100
AcDbMText
 10
263.4509981022159
 20
543.6346761443502
 30
3.646124999999996
 40
0.125
 41
0.0
 71
     1
 72
     1
  1

  7
ROMANS
 73
     1
 44
1.0
1001
ACAD
1000
MTEXTBEGIN
1070
    73
1070
     1
1070
    44
1040
1.0
1070
    74
1070
     0
1000
MTEXTEND
  0
MTEXT
  5
4E0E6
330
458D6
100
AcDbEntity
  8
DIMS
100
AcDbMText
 10
262.8011374184602
 20
540.1940165057656
 30
3.646124999999996
 40
0.125
 41
0.0
 71
     1
 72
     1
  1

  7
ROMANS
 73
     1
 44
1.0
1001
ACAD
1000
MTEXTBEGIN
1070
    73
1070
     1
1070
    44
1040
1.0
1070
    74
1070
     0
1000
MTEXTEND
  0
LINE
  5
5ADD4
330
458D6
100
AcDbEntity
  8
0
 62
     0
100
AcDbLine
 10
1023.785475841503
 20
354.6411969198664
 30
3.646124999999996
 11
1023.785475841503
 21
405.4411969198664
 31
3.646124999999996
  0
LINE
  5
5ADD5
330
458D6
100
AcDbEntity
  8
0
 62
     0
100
AcDbLine
 10
1023.785475841503
 20
354.6411969198664
 30
3.646124999999996
 11
1033.534717342128
 21
354.6411969198664
 31
3.646124999999996
  0
LINE
  5
5ADD6
330
458D6
100
AcDbEntity
  8
0
 62
     0
100
AcDbLine
 10
1053.503475841502
 20
356.5461969198661
 30
3.646124999999996
 11
1053.503475841502
 21
403.5361969198667
 31
3.646124999999996
  0
LINE
  5
5ADD7
330
458D6
100
AcDbEntity
  8
0
 62
     0
100
AcDbLine
 10
1023.785475841503
 20
405.4411969198664
 30
3.646124999999996
 11
1051.598475841504
 21
405.4411969198664
 31
3.646124999999996
  0
ARC
  5
5ADD9
330
458D6
100
AcDbEntity
  8
0
 62
     0
100
AcDbCircle
 10
1051.598475841504
 20
356.5461969198661
 30
3.646124999999996
 40
1.904999999999999
100
AcDbArc
 50
270.0
 51
0.0
  0
ARC
  5
5ADDA
330
458D6
100
AcDbEntity
  8
0
 62
     0
100
AcDbCircle
 10
1051.598475841504
 20
403.5361969198667
 30
3.646124999999996
 40
1.904999999999999
100
AcDbArc
 50
0.0
 51
90.0
  0
LINE
  5
5AE4A
330
458D6
100
AcDbEntity
  8
0
 62
     0
100
AcDbLine
 10
1018.324475841502
 20
354.7521609385341
 30
3.646124999999996
 11
1018.324475841502
 21
374.6303073170331
 31
3.646124999999996
  0
LINE
  5
5AE4B
330
458D6
100
AcDbEntity
  8
0
 62
     0
100
AcDbLine
 10
1012.863475841501
 20
361.2180950518959
 30
3.646124999999996
 11
1018.324475841502
 21
358.0651852318516
 31
3.646124999999996
  0
LINE
  5
5AE4C
330
458D6
100
AcDbEntity
  8
0
 62
     0
100
AcDbLine
 10
1012.863475841501
 20
363.8336406442924
 30
3.646124999999996
 11
1018.324475841502
 21
360.6807308242482
 31
3.646124999999996
  0
LINE
  5
5AE4D
330
458D6
100
AcDbEntity
  8
0
 62
     0
100
AcDbLine
 10
1012.863475841501
 20
375.1676715446794
 30
3.646124999999996
 11
1018.324475841502
 21
372.0147617246351
 31
3.646124999999996
  0
LINE
  5
5AE4E
330
458D6
100
AcDbEntity
  8
0
 62
     0
100
AcDbLine
 10
1012.863475841501
 20
377.7832171370774
 30
3.646124999999996
 11
1018.324475841502
 21
374.6303073170331
 31
3.646124999999996
  0
LINE
  5
5AE4F
330
458D6
100
AcDbEntity
  8
0
 62
     0
100
AcDbLine
 10
1012.863475841501
 20
375.1676715446794
 30
3.646124999999996
 11
1012.863475841501
 21
409.3298799563022
 31
3.646124999999996
  0
LINE
  5
5AE50
330
458D6
100
AcDbEntity
  8
0
 62
     0
100
AcDbLine
 10
1018.324475841502
 20
361.2038396952906
 30
3.646124999999996
 11
1023.785475841503
 21
364.3567495153348
 31
3.646124999999996
  0
LINE
  5
5AE51
330
458D6
100
AcDbEntity
  8
0
 62
     0
100
AcDbLine
 10
1018.324475841502
 20
371.840392513351
 30
3.646124999999996
 11
1023.785475841503
 21
374.9933023333953
 31
3.646124999999996
  0
LINE
  5
5AE52
330
458D6
100
AcDbEntity
  8
0
 62
     0
100
AcDbLine
 10
1034.80471734213
 20
372.5378712142719
 30
3.646124999999996
 11
1049.893830253833
 21
372.5378712142719
 31
3.646124999999996
  0
LINE
  5
5AE53
330
458D6
100
AcDbEntity
  8
0
 62
     0
100
AcDbLine
 10
1033.534717342128
 20
353.7059425778564
 30
3.646124999999996
 11
1051.163830253832
 21
353.7059425778564
 31
3.646124999999996
  0
LINE
  5
5AE54
330
458D6
100
AcDbEntity
  8
0
 62
     0
100
AcDbLine
 10
1051.163830253832
 20
353.7059425778564
 30
3.646124999999996
 11
1051.163830253832
 21
371.2678712142716
 31
3.646124999999996
  0
LINE
  5
5AE55
330
458D6
100
AcDbEntity
  8
0
 62
     0
100
AcDbLine
 10
1033.534717342128
 20
353.7059425778564
 30
3.646124999999996
 11
1033.534717342128
 21
371.2678712142716
 31
3.646124999999996
  0
LINE
  5
5AE56
330
458D6
100
AcDbEntity
  8
0
 62
     0
100
AcDbLine
 10
1051.163830253832
 20
354.6411969198664
 30
3.646124999999996
 11
1051.598475841504
 21
354.6411969198664
 31
3.646124999999996
  0
ARC
  5
5AE57
330
458D6
100
AcDbEntity
  8
0
 62
     0
100
AcDbCircle
 10
1034.80471734213
 20
371.2678712142716
 30
3.646124999999996
 40
1.27
100
AcDbArc
 50
90.0
 51
180.0
  0
ARC
  5
5AE58
330
458D6
100
AcDbEntity
  8
0
 62
     0
100
AcDbCircle
 10
1049.893830253833
 20
371.2678712142716
 30
3.646124999999996
 40
1.27
100
AcDbArc
 50
0.0
 51
90.0
  0
LINE
  5
5AE59
330
458D6
100
AcDbEntity
  8
0
 62
     0
100
AcDbLine
 10
1032.512758074185
 20
354.6411969198664
 30
3.646124999999996
 11
1032.512758074185
 21
405.4411969198664
 31
3.646124999999996
  0
LINE
  5
5AE5A
330
458D6
100
AcDbEntity
  8
0
 62
     0
100
AcDbLine
 10
1018.324475841502
 20
409.3298799563022
 30
3.646124999999996
 11
1023.785475841503
 21
399.8711504961679
 31
3.646124999999996
  0
LINE
  5
5AE5B
330
458D6
100
AcDbEntity
  8
0
 62
     0
100
AcDbLine
 10
1012.863475841501
 20
399.8711504961679
 30
3.646124999999996
 11
1018.324475841502
 21
409.3298799563022
 31
3.646124999999996
  0
LINE
  5
5AE5C
330
458D6
100
AcDbEntity
  8
0
 62
     0
100
AcDbLine
 10
1018.324475841502
 20
409.3298799563022
 30
3.646124999999996
 11
1018.324475841502
 21
414.0378622700543
 31
3.646124999999996
  0
LINE
  5
5AE5D
330
458D6
100
AcDbEntity
  8
0
 62
     0
100
AcDbLine
 10
1021.720330042944
 20
393.4979510670683
 30
3.646124999999996
 11
1023.650098939131
 21
393.4979510670683
 31
3.646124999999996
  0
LINE
  5
5AE5E
330
458D6
100
AcDbEntity
  8
0
 62
     0
100
AcDbLine
 10
1021.720330042944
 20
399.9496304424191
 30
3.646124999999996
 11
1023.650098939131
 21
399.9496304424191
 31
3.646124999999996
  0
LINE
  5
5AE5F
330
458D6
100
AcDbEntity
  8
0
 62
     0
100
AcDbLine
 10
1020.450330042946
 20
394.7679510670686
 30
3.646124999999996
 11
1020.450330042946
 21
395.8347907547431
 31
3.646124999999996
  0
LINE
  5
5AE60
330
458D6
100
AcDbEntity
  8
0
 62
     0
100
AcDbLine
 10
1021.108825495908
 20
393.6548642829613
 30
3.646124999999996
 11
1021.108825495908
 21
399.7927172265246
 31
3.646124999999996
  0
LINE
  5
5AE61
330
458D6
100
AcDbEntity
  8
0
 62
     0
100
AcDbLine
 10
1020.450330042946
 20
397.6127907547429
 30
3.646124999999996
 11
1020.450330042946
 21
398.6796304424188
 31
3.646124999999996
  0
ARC
  5
5AE62
330
458D6
100
AcDbEntity
  8
0
 62
     0
100
AcDbCircle
 10
1021.720330042944
 20
394.7679510670686
 30
3.646124999999996
 40
1.27
100
AcDbArc
 50
180.0
 51
270.0
  0
ARC
  5
5AE63
330
458D6
100
AcDbEntity
  8
0
 62
     0
100
AcDbCircle
 10
1021.720330042944
 20
398.6796304424188
 30
3.646124999999996
 40
1.27
100
AcDbArc
 50
90.0
 51
180.0
  0
LINE
  5
5AE64
330
458D6
100
AcDbEntity
  8
0
 62
     0
100
AcDbLine
 10
1021.108825495908
 20
397.6127907547429
 30
3.646124999999996
 11
1020.450330042946
 21
397.6127907547429
 31
3.646124999999996
  0
LINE
  5
5AE65
330
458D6
100
AcDbEntity
  8
0
 62
     0
100
AcDbLine
 10
1021.108825495908
 20
395.8347907547431
 30
3.646124999999996
 11
1020.450330042946
 21
395.8347907547431
 31
3.646124999999996
  0
LINE
  5
5AE66
330
458D6
100
AcDbEntity
  8
0
 62
     0
100
AcDbLine
 10
1014.646725287825
 20
386.9076163568658
 30
3.646124999999996
 11
1015.231821656899
 21
386.9076163568658
 31
3.646124999999996
  0
LINE
  5
5AE67
330
458D6
100
AcDbEntity
  8
0
 62
     0
100
AcDbLine
 10
1015.231821656899
 20
392.6618170312957
 30
3.646124999999996
 11
1022.906913988843
 21
392.6618170312957
 31
3.646124999999996
  0
LINE
  5
5AE68
330
458D6
100
AcDbEntity
  8
0
 62
     0
100
AcDbLine
 10
1014.646725287825
 20
376.75365758921
 30
3.646124999999996
 11
1014.646725287825
 21
381.8956172848398
 31
3.646124999999996
  0
LINE
  5
5AE69
330
458D6
100
AcDbEntity
  8
0
 62
     0
100
AcDbLine
 10
1015.231821656899
 20
376.4158520430242
 30
3.646124999999996
 11
1015.231821656899
 21
392.6618170312957
 31
3.646124999999996
  0
LINE
  5
5AE6A
330
458D6
100
AcDbEntity
  8
0
 62
     0
100
AcDbLine
 10
1022.906913988843
 20
377.6647942692048
 30
3.646124999999996
 11
1022.906913988843
 21
392.6618170312957
 31
3.646124999999996
  0
LINE
  5
5AE6B
330
458D6
100
AcDbEntity
  8
0
 62
     0
100
AcDbLine
 10
1023.437926757173
 20
377.6647942692048
 30
3.646124999999996
 11
1023.437926757173
 21
392.1313407084791
 31
3.646124999999996
  0
LINE
  5
5AE6C
330
458D6
100
AcDbEntity
  8
0
 62
     0
100
AcDbLine
 10
1014.646725287825
 20
382.5145073591166
 30
3.646124999999996
 11
1015.231821656899
 21
382.5145073591166
 31
3.646124999999996
  0
LINE
  5
5AE6D
330
458D6
100
AcDbEntity
  8
0
 62
     0
100
AcDbLine
 10
1014.646725287825
 20
381.8956172848398
 30
3.646124999999996
 11
1015.231821656899
 21
381.8956172848398
 31
3.646124999999996
  0
LINE
  5
5AE6E
330
458D6
100
AcDbEntity
  8
0
 62
     0
100
AcDbLine
 10
1014.646725287825
 20
382.5145073591166
 30
3.646124999999996
 11
1014.646725287825
 21
386.9076163568658
 31
3.646124999999996
  0
LINE
  5
5AE6F
330
458D6
100
AcDbEntity
  8
0
 62
     0
100
AcDbLine
 10
1023.437926757173
 20
392.1313407084791
 30
3.646124999999996
 11
1023.785475841503
 21
392.1313407084791
 31
3.646124999999996
  0
LINE
  5
5AE70
330
458D6
100
AcDbEntity
  8
0
 62
     0
100
AcDbLine
 10
1022.906913988843
 20
391.026180259225
 30
3.646124999999996
 11
1023.437926757173
 21
391.026180259225
 31
3.646124999999996
  0
LINE
  5
5AE71
330
458D6
100
AcDbEntity
  8
0
 62
     0
100
AcDbLine
 10
1021.24420239828
 20
373.5260974268658
 30
3.646124999999996
 11
1021.24420239828
 21
377.5078810533118
 31
3.646124999999996
  0
ARC
  5
5AE72
330
458D6
100
AcDbEntity
  8
0
 62
     0
100
AcDbCircle
 10
1021.855706945316
 20
376.3947942692046
 30
3.646124999999996
 40
1.27
100
AcDbArc
 50
90.0
 51
180.0
  0
LINE
  5
5AE73
330
458D6
100
AcDbEntity
  8
0
 62
     0
100
AcDbLine
 10
1020.585706945317
 20
373.1459148998371
 30
3.646124999999996
 11
1020.585706945317
 21
376.3947942692046
 31
3.646124999999996
  0
LINE
  5
5AE74
330
458D6
100
AcDbEntity
  8
0
 62
     0
100
AcDbLine
 10
1021.855706945316
 20
377.6647942692048
 30
3.646124999999996
 11
1023.785475841503
 21
377.6647942692048
 31
3.646124999999996
  0
CIRCLE
  5
5AE75
330
458D6
100
AcDbEntity
  8
0
 62
     0
100
AcDbCircle
 10
1019.111036905751
 20
389.4393107113692
 30
3.646124999999996
 40
2.494757387890112
  0
CIRCLE
  5
5AE76
330
458D6
100
AcDbEntity
  8
0
 62
     0
100
AcDbCircle
 10
1019.111036905751
 20
389.4393107113692
 30
3.646124999999996
 40
1.897969579143651
  0
LINE
  5
5AE77
330
458D6
100
AcDbEntity
  8
0
 62
     0
100
AcDbLine
 10
1025.058015841501
 20
440.4458263142839
 30
3.646124999999996
 11
1031.656935841502
 21
440.4458263142839
 31
3.646124999999996
  0
LINE
  5
5AE7B
330
458D6
100
AcDbEntity
  8
0
 62
     0
100
AcDbLine
 10
1025.058015841501
 20
405.4411969198664
 30
3.646124999999996
 11
1025.058015841501
 21
429.229136047342
 31
3.646124999999996
  0
LINE
  5
5AE7C
330
458D6
100
AcDbEntity
  8
0
 62
     0
100
AcDbLine
 10
1031.656935841502
 20
405.4411969198664
 30
3.646124999999996
 11
1031.656935841502
 21
429.3687823681309
 31
3.646124999999996
  0
ARC
  5
5AE80
330
458D6
100
AcDbEntity
  8
0
 62
     0
100
AcDbCircle
 10
1030.014739466423
 20
429.0498018945799
 30
3.646124999999996
 40
1.672888961296551
100
AcDbArc
 50
349.0077382423165
 51
187.8371359125555
  0
ARC
  5
5AE81
330
458D6
100
AcDbEntity
  8
0
 62
     0
100
AcDbCircle
 10
1026.705577096906
 20
428.9454227642493
 30
3.646124999999996
 40
1.671810789925271
100
AcDbArc
 50
170.2293799572432
 51
8.851849123308742
  0
ARC
  5
5AE82
330
458D6
100
AcDbEntity
  8
0
 62
     0
100
AcDbCircle
 10
1026.30041341562
 20
427.7099342626932
 30
3.646124999999996
 40
1.962530456999941
100
AcDbArc
 50
14.41125676822719
 51
129.2761725436669
  0
LINE
  5
5AE83
330
458D6
100
AcDbEntity
  8
0
 62
     0
100
AcDbLine
 10
1031.656935841502
 20
433.4321418065925
 30
3.646124999999996
 11
1031.656935841502
 21
440.4458263142839
 31
3.646124999999996
  0
LINE
  5
5AE84
330
458D6
100
AcDbEntity
  8
0
 62
     0
100
AcDbLine
 10
1025.058015841501
 20
433.5329096163402
 30
3.646124999999996
 11
1025.058015841501
 21
440.4458263142839
 31
3.646124999999996
  0
ARC
  5
5AE85
330
458D6
100
AcDbEntity
  8
0
 62
     0
100
AcDbCircle
 10
1026.705577096906
 20
433.8166228994329
 30
3.646124999999996
 40
1.671810789925271
100
AcDbArc
 50
170.2293799572432
 51
8.851849123308742
  0
ARC
  5
5AE86
330
458D6
100
AcDbEntity
  8
0
 62
     0
100
AcDbCircle
 10
1029.996954763902
 20
433.7470345028143
 30
3.646124999999996
 40
1.689584146506412
100
AcDbArc
 50
349.2588140444436
 51
193.9884104935524
  0
ARC
  5
5AE87
330
458D6
100
AcDbEntity
  8
0
 62
     0
100
AcDbCircle
 10
1030.395225631506
 20
434.9443357313418
 30
3.646124999999996
 40
1.969427104531016
100
AcDbArc
 50
193.7055574575358
 51
309.8401817641288
  0
LINE
  5
5AE88
330
458D6
100
AcDbEntity
  8
0
 62
     0
100
AcDbLine
 10
1028.357475841502
 20
440.4458263142839
 30
3.646124999999996
 11
1028.357475841502
 21
456.8391976955999
 31
3.646124999999996
  0
LINE
  5
5AE89
330
458D6
100
AcDbEntity
  8
0
 62
     0
100
AcDbLine
 10
1030.406306793429
 20
440.5778505805291
 30
3.646124999999996
 11
1037.329511384387
 21
470.9531583012053
 31
3.646124999999996
  0
LINE
  5
5AE8A
330
458D6
100
AcDbEntity
  8
0
 62
     0
100
AcDbLine
 10
1031.02542915077
 20
440.4367388990884
 30
3.646124999999996
 11
1037.988817467013
 21
470.9883512493433
 31
3.646124999999996
  0
LINE
  5
5AE8B
330
458D6
100
AcDbEntity
  8
0
 62
     0
100
AcDbLine
 10
1030.31220524244
 20
440.5577020901701
 30
3.646124999999996
 11
1035.25351260018
 21
470.8276244611952
 31
3.646124999999996
  0
LINE
  5
5AE8C
330
458D6
100
AcDbEntity
  8
0
 62
     0
100
AcDbLine
 10
1029.685500490159
 20
440.6600063103669
 30
3.646124999999996
 11
1034.622519512738
 21
470.9036587970995
 31
3.646124999999996
  0
LINE
  5
5AE8D
330
458D6
100
AcDbEntity
  8
0
 62
     0
100
AcDbLine
 10
1029.555334835048
 20
440.4568880080416
 30
3.646124999999996
 11
1032.180411569524
 21
472.3145492322225
 31
3.646124999999996
  0
LINE
  5
5AE8E
330
458D6
100
AcDbEntity
  8
0
 62
     0
100
AcDbLine
 10
1028.922479676691
 20
440.5090353813467
 30
3.646124999999996
 11
1031.561180732973
 21
472.5320399735032
 31
3.646124999999996
  0
LINE
  5
5AE8F
330
458D6
100
AcDbEntity
  8
0
 62
     0
100
AcDbLine
 10
1028.674975841503
 20
440.4458263142839
 30
3.646124999999996
 11
1028.674975841503
 21
472.2754056053444
 31
3.646124999999996
  0
LINE
  5
5AE90
330
458D6
100
AcDbEntity
  8
0
 62
     0
100
AcDbLine
 10
1028.039975841503
 20
440.4458263142839
 30
3.646124999999996
 11
1028.039975841503
 21
472.1062451496621
 31
3.646124999999996
  0
LINE
  5
5AE91
330
458D6
100
AcDbEntity
  8
0
 62
     0
100
AcDbLine
 10
1027.8671237193
 20
440.5090353813467
 30
3.646124999999996
 11
1025.300144799084
 21
471.6616275078294
 31
3.646124999999996
  0
LINE
  5
5AE92
330
458D6
100
AcDbEntity
  8
0
 62
     0
100
AcDbLine
 10
1027.234268560943
 20
440.4568880080416
 30
3.646124999999996
 11
1024.658458784593
 21
471.7166504961848
 31
3.646124999999996
  0
LINE
  5
5AE93
330
458D6
100
AcDbEntity
  8
0
 62
     0
100
AcDbLine
 10
1027.104102905829
 20
440.6600063103669
 30
3.646124999999996
 11
1021.898143375281
 21
472.5511596929861
 31
3.646124999999996
  0
LINE
  5
5AE94
330
458D6
100
AcDbEntity
  8
0
 62
     0
100
AcDbLine
 10
1026.477398153551
 20
440.5577020901701
 30
3.646124999999996
 11
1021.211096283401
 21
472.8185062156302
 31
3.646124999999996
  0
LINE
  5
5AE95
330
458D6
100
AcDbEntity
  8
0
 62
     0
100
AcDbLine
 10
1026.383296602563
 20
440.5778505805291
 30
3.646124999999996
 11
1019.054312712698
 21
472.7335001803197
 31
3.646124999999996
  0
LINE
  5
5AE96
330
458D6
100
AcDbEntity
  8
0
 62
     0
100
AcDbLine
 10
1025.764174245221
 20
440.4367388990884
 30
3.646124999999996
 11
1018.45747416194
 21
472.494619109964
 31
3.646124999999996
  0
POLYLINE
  5
5AE97
330
458D6
100
AcDbEntity
  8
0
 62
     0
100
AcDb2dPolyline
 66
     1
 10
0.0
 20
0.0
 30
3.646124999999996
 70
     4
 75
     6
  0
VERTEX
  5
5AE98
330
5AE97
100
AcDbEntity
  8
0
 62
     0
100
AcDbVertex
100
AcDb2dVertex
 10
1015.029974979688
 20
470.3292858305854
 30
3.646124999999996
 70
    16
  0
VERTEX
  5
5AE99
330
5AE97
100
AcDbEntity
  8
0
 62
     0
100
AcDbVertex
100
AcDb2dVertex
 10
1015.029974979688
 20
470.3292858305854
 30
3.646124999999996
 70
     8
  0
VERTEX
  5
5AE9A
330
5AE97
100
AcDbEntity
  8
0
 62
     0
100
AcDbVertex
100
AcDb2dVertex
 10
1015.960787538794
 20
471.0055707365823
 30
3.646124999999996
 70
     8
  0
VERTEX
  5
5AE9B
330
5AE97
100
AcDbEntity
  8
0
 62
     0
100
AcDbVertex
100
AcDb2dVertex
 10
1016.769019465233
 20
471.5514076761846
 30
3.646124999999996
 70
     8
  0
VERTEX
  5
5AE9C
330
5AE97
100
AcDbEntity
  8
0
 62
     0
100
AcDbVertex
100
AcDb2dVertex
 10
1017.46699368221
 20
471.9814828435154
 30
3.646124999999996
 70
     8
  0
VERTEX
  5
5AE9D
330
5AE97
100
AcDbEntity
  8
0
 62
     0
100
AcDbVertex
100
AcDb2dVertex
 10
1018.067033112933
 20
472.3104824327007
 30
3.646124999999996
 70
     8
  0
VERTEX
  5
5AE9E
330
5AE97
100
AcDbEntity
  8
0
 62
     0
100
AcDbVertex
100
AcDb2dVertex
 10
1018.581460680601
 20
472.5530926378619
 30
3.646124999999996
 70
     8
  0
VERTEX
  5
5AE9F
330
5AE97
100
AcDbEntity
  8
0
 62
     0
100
AcDbVertex
100
AcDb2dVertex
 10
1019.02259930842
 20
472.723999653125
 30
3.646124999999996
 70
     8
  0
VERTEX
  5
5AEA0
330
5AE97
100
AcDbEntity
  8
0
 62
     0
100
AcDbVertex
100
AcDb2dVertex
 10
1019.402771919591
 20
472.837889672613
 30
3.646124999999996
 70
     8
  0
VERTEX
  5
5AEA1
330
5AE97
100
AcDbEntity
  8
0
 62
     0
100
AcDbVertex
100
AcDb2dVertex
 10
1019.734301437322
 20
472.9094488904506
 30
3.646124999999996
 70
     8
  0
VERTEX
  5
5AEA2
330
5AE97
100
AcDbEntity
  8
0
 62
     0
100
AcDbVertex
100
AcDb2dVertex
 10
1020.028429826214
 20
472.9513477487334
 30
3.646124999999996
 70
     8
  0
VERTEX
  5
5AEA3
330
5AE97
100
AcDbEntity
  8
0
 62
     0
100
AcDbVertex
100
AcDb2dVertex
 10
1020.292075216466
 20
472.9681936814444
 30
3.646124999999996
 70
     8
  0
VERTEX
  5
5AEA4
330
5AE97
100
AcDbEntity
  8
0
 62
     0
100
AcDbVertex
100
AcDb2dVertex
 10
1020.531074779685
 20
472.9625783705403
 30
3.646124999999996
 70
     8
  0
VERTEX
  5
5AEA5
330
5AE97
100
AcDbEntity
  8
0
 62
     0
100
AcDbVertex
100
AcDb2dVertex
 10
1020.751265687462
 20
472.9370934979766
 30
3.646124999999996
 70
     8
  0
VERTEX
  5
5AEA6
330
5AE97
100
AcDbEntity
  8
0
 62
     0
100
AcDbVertex
100
AcDb2dVertex
 10
1020.958485111407
 20
472.894330745709
 30
3.646124999999996
 70
     8
  0
VERTEX
  5
5AEA7
330
5AE97
100
AcDbEntity
  8
0
 62
     0
100
AcDbVertex
100
AcDb2dVertex
 10
1021.158570223111
 20
472.8368817956928
 30
3.646124999999996
 70
     8
  0
VERTEX
  5
5AEA8
330
5AE97
100
AcDbEntity
  8
0
 62
     0
100
AcDbVertex
100
AcDb2dVertex
 10
1021.357358194184
 20
472.7673383298838
 30
3.646124999999996
 70
     8
  0
VERTEX
  5
5AEA9
330
5AE97
100
AcDbEntity
  8
0
 62
     0
100
AcDbVertex
100
AcDb2dVertex
 10
1021.560686196218
 20
472.6882920302359
 30
3.646124999999996
 70
     8
  0
VERTEX
  5
5AEAA
330
5AE97
100
AcDbEntity
  8
0
 62
     0
100
AcDbVertex
100
AcDb2dVertex
 10
1021.773418538481
 20
472.602190596377
 30
3.646124999999996
 70
     8
  0
VERTEX
  5
5AEAB
330
5AE97
100
AcDbEntity
  8
0
 62
     0
100
AcDbVertex
100
AcDb2dVertex
 10
1021.996528080892
 20
472.5109057986069
 30
3.646124999999996
 70
     8
  0
VERTEX
  5
5AEAC
330
5AE97
100
AcDbEntity
  8
0
 62
     0
100
AcDbVertex
100
AcDb2dVertex
 10
1022.230014821022
 20
472.4161654248954
 30
3.646124999999996
 70
     8
  0
VERTEX
  5
5AEAD
330
5AE97
100
AcDbEntity
  8
0
 62
     0
100
AcDbVertex
100
AcDb2dVertex
 10
1022.473878756454
 20
472.3196972632129
 30
3.646124999999996
 70
     8
  0
VERTEX
  5
5AEAE
330
5AE97
100
AcDbEntity
  8
0
 62
     0
100
AcDbVertex
100
AcDb2dVertex
 10
1022.728119884766
 20
472.2232291015319
 30
3.646124999999996
 70
     8
  0
VERTEX
  5
5AEAF
330
5AE97
100
AcDbEntity
  8
0
 62
     0
100
AcDbVertex
100
AcDb2dVertex
 10
1022.992738203538
 20
472.1284887278202
 30
3.646124999999996
 70
     8
  0
VERTEX
  5
5AEB0
330
5AE97
100
AcDbEntity
  8
0
 62
     0
100
AcDbVertex
100
AcDb2dVertex
 10
1023.267733710347
 20
472.0372039300488
 30
3.646124999999996
 70
     8
  0
VERTEX
  5
5AEB1
330
5AE97
100
AcDbEntity
  8
0
 62
     0
100
AcDbVertex
100
AcDb2dVertex
 10
1023.553106402772
 20
471.9511024961899
 30
3.646124999999996
 70
     8
  0
VERTEX
  5
5AEB2
330
5AE97
100
AcDbEntity
  8
0
 62
     0
100
AcDbVertex
100
AcDb2dVertex
 10
1023.848784215429
 20
471.8719842054792
 30
3.646124999999996
 70
     8
  0
VERTEX
  5
5AEB3
330
5AE97
100
AcDbEntity
  8
0
 62
     0
100
AcDbVertex
100
AcDb2dVertex
 10
1024.154406831067
 20
471.8019368022163
 30
3.646124999999996
 70
     8
  0
VERTEX
  5
5AEB4
330
5AE97
100
AcDbEntity
  8
0
 62
     0
100
AcDbVertex
100
AcDb2dVertex
 10
1024.46954186948
 20
471.7431200219689
 30
3.646124999999996
 70
     8
  0
VERTEX
  5
5AEB5
330
5AE97
100
AcDbEntity
  8
0
 62
     0
100
AcDbVertex
100
AcDb2dVertex
 10
1024.793756950448
 20
471.6976936003055
 30
3.646124999999996
 70
     8
  0
VERTEX
  5
5AEB6
330
5AE97
100
AcDbEntity
  8
0
 62
     0
100
AcDbVertex
100
AcDb2dVertex
 10
1025.126619693766
 20
471.6678172727922
 30
3.646124999999996
 70
     8
  0
VERTEX
  5
5AEB7
330
5AE97
100
AcDbEntity
  8
0
 62
     0
100
AcDbVertex
100
AcDb2dVertex
 10
1025.467697719222
 20
471.6556507749965
 30
3.646124999999996
 70
     8
  0
VERTEX
  5
5AEB8
330
5AE97
100
AcDbEntity
  8
0
 62
     0
100
AcDbVertex
100
AcDb2dVertex
 10
1025.8165586466
 20
471.6633538424843
 30
3.646124999999996
 70
     8
  0
VERTEX
  5
5AEB9
330
5AE97
100
AcDbEntity
  8
0
 62
     0
100
AcDbVertex
100
AcDb2dVertex
 10
1026.172770095689
 20
471.693086210823
 30
3.646124999999996
 70
     8
  0
VERTEX
  5
5AEBA
330
5AE97
100
AcDbEntity
  8
0
 62
     0
100
AcDbVertex
100
AcDb2dVertex
 10
1026.535755557524
 20
471.7458557565315
 30
3.646124999999996
 70
     8
  0
VERTEX
  5
5AEBB
330
5AE97
100
AcDbEntity
  8
0
 62
     0
100
AcDbVertex
100
AcDb2dVertex
 10
1026.904362008119
 20
471.8180629199284
 30
3.646124999999996
 70
     8
  0
VERTEX
  5
5AEBC
330
5AE97
100
AcDbEntity
  8
0
 62
     0
100
AcDbVertex
100
AcDb2dVertex
 10
1027.277292294727
 20
471.9049562822823
 30
3.646124999999996
 70
     8
  0
VERTEX
  5
5AEBD
330
5AE97
100
AcDbEntity
  8
0
 62
     0
100
AcDbVertex
100
AcDb2dVertex
 10
1027.653249264612
 20
472.0017844248602
 30
3.646124999999996
 70
     8
  0
VERTEX
  5
5AEBE
330
5AE97
100
AcDbEntity
  8
0
 62
     0
100
AcDbVertex
100
AcDb2dVertex
 10
1028.030935765027
 20
472.1037959289351
 30
3.646124999999996
 70
     8
  0
VERTEX
  5
5AEBF
330
5AE97
100
AcDbEntity
  8
0
 62
     0
100
AcDbVertex
100
AcDb2dVertex
 10
1028.409054643236
 20
472.2062393757727
 30
3.646124999999996
 70
     8
  0
VERTEX
  5
5AEC0
330
5AE97
100
AcDbEntity
  8
0
 62
     0
100
AcDbVertex
100
AcDb2dVertex
 10
1028.78630874649
 20
472.304363346643
 30
3.646124999999996
 70
     8
  0
VERTEX
  5
5AEC1
330
5AE97
100
AcDbEntity
  8
0
 62
     0
100
AcDbVertex
100
AcDb2dVertex
 10
1029.161400922055
 20
472.3934164228158
 30
3.646124999999996
 70
     8
  0
VERTEX
  5
5AEC2
330
5AE97
100
AcDbEntity
  8
0
 62
     0
100
AcDbVertex
100
AcDb2dVertex
 10
1029.532817827078
 20
472.469151124423
 30
3.646124999999996
 70
     8
  0
VERTEX
  5
5AEC3
330
5AE97
100
AcDbEntity
  8
0
 62
     0
100
AcDbVertex
100
AcDb2dVertex
 10
1029.898181358285
 20
472.5293357270461
 30
3.646124999999996
 70
     8
  0
VERTEX
  5
5AEC4
330
5AE97
100
AcDbEntity
  8
0
 62
     0
100
AcDbVertex
100
AcDb2dVertex
 10
1030.254897222305
 20
472.5722424451328
 30
3.646124999999996
 70
     8
  0
VERTEX
  5
5AEC5
330
5AE97
100
AcDbEntity
  8
0
 62
     0
100
AcDbVertex
100
AcDb2dVertex
 10
1030.600371125757
 20
472.596143493129
 30
3.646124999999996
 70
     8
  0
VERTEX
  5
5AEC6
330
5AE97
100
AcDbEntity
  8
0
 62
     0
100
AcDbVertex
100
AcDb2dVertex
 10
1030.932008775261
 20
472.5993110854797
 30
3.646124999999996
 70
     8
  0
VERTEX
  5
5AEC7
330
5AE97
100
AcDbEntity
  8
0
 62
     0
100
AcDbVertex
100
AcDb2dVertex
 10
1031.247215877445
 20
472.5800174366322
 30
3.646124999999996
 70
     8
  0
VERTEX
  5
5AEC8
330
5AE97
100
AcDbEntity
  8
0
 62
     0
100
AcDbVertex
100
AcDb2dVertex
 10
1031.543398138927
 20
472.5365347610299
 30
3.646124999999996
 70
     8
  0
VERTEX
  5
5AEC9
330
5AE97
100
AcDbEntity
  8
0
 62
     0
100
AcDbVertex
100
AcDb2dVertex
 10
1031.817961266332
 20
472.4671352731217
 30
3.646124999999996
 70
     8
  0
VERTEX
  5
5AECA
330
5AE97
100
AcDbEntity
  8
0
 62
     0
100
AcDbVertex
100
AcDb2dVertex
 10
1032.069463986232
 20
472.3712430451925
 30
3.646124999999996
 70
     8
  0
VERTEX
  5
5AECB
330
5AE97
100
AcDbEntity
  8
0
 62
     0
100
AcDbVertex
100
AcDb2dVertex
 10
1032.301077105007
 20
472.2528895808991
 30
3.646124999999996
 70
     8
  0
VERTEX
  5
5AECC
330
5AE97
100
AcDbEntity
  8
0
 62
     0
100
AcDbVertex
100
AcDb2dVertex
 10
1032.517124448991
 20
472.1172582417327
 30
3.646124999999996
 70
     8
  0
VERTEX
  5
5AECD
330
5AE97
100
AcDbEntity
  8
0
 62
     0
100
AcDbVertex
100
AcDb2dVertex
 10
1032.721929844515
 20
471.9695323891904
 30
3.646124999999996
 70
     8
  0
VERTEX
  5
5AECE
330
5AE97
100
AcDbEntity
  8
0
 62
     0
100
AcDbVertex
100
AcDb2dVertex
 10
1032.919817117905
 20
471.8148953847662
 30
3.646124999999996
 70
     8
  0
VERTEX
  5
5AECF
330
5AE97
100
AcDbEntity
  8
0
 62
     0
100
AcDbVertex
100
AcDb2dVertex
 10
1033.115110095497
 20
471.6585305899541
 30
3.646124999999996
 70
     8
  0
VERTEX
  5
5AED0
330
5AE97
100
AcDbEntity
  8
0
 62
     0
100
AcDbVertex
100
AcDb2dVertex
 10
1033.312132603623
 20
471.5056213662514
 30
3.646124999999996
 70
     8
  0
VERTEX
  5
5AED1
330
5AE97
100
AcDbEntity
  8
0
 62
     0
100
AcDbVertex
100
AcDb2dVertex
 10
1033.515208468613
 20
471.3613510751518
 30
3.646124999999996
 70
     8
  0
VERTEX
  5
5AED2
330
5AE97
100
AcDbEntity
  8
0
 62
     0
100
AcDbVertex
100
AcDb2dVertex
 10
1033.728589453228
 20
471.2302911540988
 30
3.646124999999996
 70
     8
  0
VERTEX
  5
5AED3
330
5AE97
100
AcDbEntity
  8
0
 62
     0
100
AcDbVertex
100
AcDb2dVertex
 10
1033.956239065946
 20
471.1145653443356
 30
3.646124999999996
 70
     8
  0
VERTEX
  5
5AED4
330
5AE97
100
AcDbEntity
  8
0
 62
     0
100
AcDbVertex
100
AcDb2dVertex
 10
1034.202048751676
 20
471.0156854630572
 30
3.646124999999996
 70
     8
  0
VERTEX
  5
5AED5
330
5AE97
100
AcDbEntity
  8
0
 62
     0
100
AcDbVertex
100
AcDb2dVertex
 10
1034.46990995533
 20
470.9351633274531
 30
3.646124999999996
 70
     8
  0
VERTEX
  5
5AED6
330
5AE97
100
AcDbEntity
  8
0
 62
     0
100
AcDbVertex
100
AcDb2dVertex
 10
1034.763714121814
 20
470.8745107547169
 30
3.646124999999996
 70
     8
  0
VERTEX
  5
5AED7
330
5AE97
100
AcDbEntity
  8
0
 62
     0
100
AcDbVertex
100
AcDb2dVertex
 10
1035.087352696035
 20
470.8352395620425
 30
3.646124999999996
 70
     8
  0
VERTEX
  5
5AED8
330
5AE97
100
AcDbEntity
  8
0
 62
     0
100
AcDbVertex
100
AcDb2dVertex
 10
1035.444717122906
 20
470.8188615666194
 30
3.646124999999996
 70
     8
  0
VERTEX
  5
5AED9
330
5AE97
100
AcDbEntity
  8
0
 62
     0
100
AcDbVertex
100
AcDb2dVertex
 10
1035.839698847335
 20
470.8268885856439
 30
3.646124999999996
 70
     8
  0
VERTEX
  5
5AEDA
330
5AE97
100
AcDbEntity
  8
0
 62
     0
100
AcDbVertex
100
AcDb2dVertex
 10
1036.275973123719
 20
470.8585287180048
 30
3.646124999999996
 70
     8
  0
VERTEX
  5
5AEDB
330
5AE97
100
AcDbEntity
  8
0
 62
     0
100
AcDbVertex
100
AcDb2dVertex
 10
1036.756350444423
 20
470.9037751893919
 30
3.646124999999996
 70
     8
  0
VERTEX
  5
5AEDC
330
5AE97
100
AcDbEntity
  8
0
 62
     0
100
AcDbVertex
100
AcDb2dVertex
 10
1037.283425111297
 20
470.9503175071943
 30
3.646124999999996
 70
     8
  0
VERTEX
  5
5AEDD
330
5AE97
100
AcDbEntity
  8
0
 62
     0
100
AcDbVertex
100
AcDb2dVertex
 10
1037.859791426189
 20
470.9858451787995
 30
3.646124999999996
 70
     8
  0
VERTEX
  5
5AEDE
330
5AE97
100
AcDbEntity
  8
0
 62
     0
100
AcDbVertex
100
AcDb2dVertex
 10
1038.488043690959
 20
470.9980477115949
 30
3.646124999999996
 70
     8
  0
VERTEX
  5
5AEDF
330
5AE97
100
AcDbEntity
  8
0
 62
     0
100
AcDbVertex
100
AcDb2dVertex
 10
1039.170776207454
 20
470.974614612971
 30
3.646124999999996
 70
     8
  0
VERTEX
  5
5AEE0
330
5AE97
100
AcDbEntity
  8
0
 62
     0
100
AcDbVertex
100
AcDb2dVertex
 10
1039.910583277523
 20
470.9032353903142
 30
3.646124999999996
 70
     8
  0
VERTEX
  5
5AEE1
330
5AE97
100
AcDbEntity
  8
0
 62
     0
100
AcDbVertex
100
AcDb2dVertex
 10
1040.710059203025
 20
470.7715995510132
 30
3.646124999999996
 70
     8
  0
VERTEX
  5
5AEE2
330
5AE97
100
AcDbEntity
  8
0
 62
     0
100
AcDbVertex
100
AcDb2dVertex
 10
1017.686536357035
 20
472.3196972632129
 30
3.646124999999996
 70
    16
  0
VERTEX
  5
5AEE3
330
5AE97
100
AcDbEntity
  8
0
 62
     0
100
AcDbVertex
100
AcDb2dVertex
 10
1020.121716586531
 20
473.2043247040686
 30
3.646124999999996
 70
    16
  0
VERTEX
  5
5AEE4
330
5AE97
100
AcDbEntity
  8
0
 62
     0
100
AcDbVertex
100
AcDb2dVertex
 10
1021.449996035522
 20
472.7620109836407
 30
3.646124999999996
 70
    16
  0
VERTEX
  5
5AEE5
330
5AE97
100
AcDbEntity
  8
0
 62
     0
100
AcDbVertex
100
AcDb2dVertex
 10
1023.442416448691
 20
471.877383542785
 30
3.646124999999996
 70
    16
  0
VERTEX
  5
5AEE6
330
5AE97
100
AcDbEntity
  8
0
 62
     0
100
AcDbVertex
100
AcDb2dVertex
 10
1026.098976586353
 20
471.4350698223586
 30
3.646124999999996
 70
    16
  0
VERTEX
  5
5AEE7
330
5AE97
100
AcDbEntity
  8
0
 62
     0
100
AcDbVertex
100
AcDb2dVertex
 10
1029.19829778003
 20
472.5408544327247
 30
3.646124999999996
 70
    16
  0
VERTEX
  5
5AEE8
330
5AE97
100
AcDbEntity
  8
0
 62
     0
100
AcDbVertex
100
AcDb2dVertex
 10
1032.076237825857
 20
472.7620109836407
 30
3.646124999999996
 70
    16
  0
VERTEX
  5
5AEE9
330
5AE97
100
AcDbEntity
  8
0
 62
     0
100
AcDbVertex
100
AcDb2dVertex
 10
1033.404518514531
 20
471.2139132714411
 30
3.646124999999996
 70
    16
  0
VERTEX
  5
5AEEA
330
5AE97
100
AcDbEntity
  8
0
 62
     0
100
AcDbVertex
100
AcDb2dVertex
 10
1035.396938927697
 20
470.5504423815027
 30
3.646124999999996
 70
    16
  0
VERTEX
  5
5AEEB
330
5AE97
100
AcDbEntity
  8
0
 62
     0
100
AcDbVertex
100
AcDb2dVertex
 10
1038.496258881693
 20
471.2139132714411
 30
3.646124999999996
 70
    16
  0
VERTEX
  5
5AEEC
330
5AE97
100
AcDbEntity
  8
0
 62
     0
100
AcDbVertex
100
AcDb2dVertex
 10
1040.710059203025
 20
470.7715995510132
 30
3.646124999999996
 70
    16
  0
SEQEND
  5
5AEED
330
5AE97
100
AcDbEntity
  8
0
 62
     0
  0
POLYLINE
  5
5AEEE
330
458D6
100
AcDbEntity
  8
0
 62
     0
100
AcDb2dPolyline
 66
     1
 10
0.0
 20
0.0
 30
3.646124999999996
 70
     4
 75
     6
  0
VERTEX
  5
5AEEF
330
5AEEE
100
AcDbEntity
  8
0
 62
     0
100
AcDbVertex
100
AcDb2dVertex
 10
1015.029974979688
 20
480.9448157394458
 30
3.646124999999996
 70
    16
  0
VERTEX
  5
5AEF0
330
5AEEE
100
AcDbEntity
  8
0
 62
     0
100
AcDbVertex
100
AcDb2dVertex
 10
1015.029974979688
 20
480.9448157394458
 30
3.646124999999996
 70
     8
  0
VERTEX
  5
5AEF1
330
5AEEE
100
AcDbEntity
  8
0
 62
     0
100
AcDbVertex
100
AcDb2dVertex
 10
1015.960787538794
 20
481.6211006454413
 30
3.646124999999996
 70
     8
  0
VERTEX
  5
5AEF2
330
5AEEE
100
AcDbEntity
  8
0
 62
     0
100
AcDbVertex
100
AcDb2dVertex
 10
1016.769019465233
 20
482.1669375850436
 30
3.646124999999996
 70
     8
  0
VERTEX
  5
5AEF3
330
5AEEE
100
AcDbEntity
  8
0
 62
     0
100
AcDbVertex
100
AcDb2dVertex
 10
1017.46699368221
 20
482.5970127523745
 30
3.646124999999996
 70
     8
  0
VERTEX
  5
5AEF4
330
5AEEE
100
AcDbEntity
  8
0
 62
     0
100
AcDbVertex
100
AcDb2dVertex
 10
1018.067033112933
 20
482.9260123415597
 30
3.646124999999996
 70
     8
  0
VERTEX
  5
5AEF5
330
5AEEE
100
AcDbEntity
  8
0
 62
     0
100
AcDbVertex
100
AcDb2dVertex
 10
1018.581460680601
 20
483.1686225467209
 30
3.646124999999996
 70
     8
  0
VERTEX
  5
5AEF6
330
5AEEE
100
AcDbEntity
  8
0
 62
     0
100
AcDbVertex
100
AcDb2dVertex
 10
1019.02259930842
 20
483.339529561984
 30
3.646124999999996
 70
     8
  0
VERTEX
  5
5AEF7
330
5AEEE
100
AcDbEntity
  8
0
 62
     0
100
AcDbVertex
100
AcDb2dVertex
 10
1019.402771919591
 20
483.4534195814721
 30
3.646124999999996
 70
     8
  0
VERTEX
  5
5AEF8
330
5AEEE
100
AcDbEntity
  8
0
 62
     0
100
AcDbVertex
100
AcDb2dVertex
 10
1019.734301437322
 20
483.5249787993096
 30
3.646124999999996
 70
     8
  0
VERTEX
  5
5AEF9
330
5AEEE
100
AcDbEntity
  8
0
 62
     0
100
AcDbVertex
100
AcDb2dVertex
 10
1020.028429826214
 20
483.5668776575925
 30
3.646124999999996
 70
     8
  0
VERTEX
  5
5AEFA
330
5AEEE
100
AcDbEntity
  8
0
 62
     0
100
AcDbVertex
100
AcDb2dVertex
 10
1020.292075216466
 20
483.5837235903049
 30
3.646124999999996
 70
     8
  0
VERTEX
  5
5AEFB
330
5AEEE
100
AcDbEntity
  8
0
 62
     0
100
AcDbVertex
100
AcDb2dVertex
 10
1020.531074779685
 20
483.5781082794007
 30
3.646124999999996
 70
     8
  0
VERTEX
  5
5AEFC
330
5AEEE
100
AcDbEntity
  8
0
 62
     0
100
AcDbVertex
100
AcDb2dVertex
 10
1020.751265687462
 20
483.5526234068371
 30
3.646124999999996
 70
     8
  0
VERTEX
  5
5AEFD
330
5AEEE
100
AcDbEntity
  8
0
 62
     0
100
AcDbVertex
100
AcDb2dVertex
 10
1020.958485111407
 20
483.509860654568
 30
3.646124999999996
 70
     8
  0
VERTEX
  5
5AEFE
330
5AEEE
100
AcDbEntity
  8
0
 62
     0
100
AcDbVertex
100
AcDb2dVertex
 10
1021.158570223111
 20
483.4524117045519
 30
3.646124999999996
 70
     8
  0
VERTEX
  5
5AEFF
330
5AEEE
100
AcDbEntity
  8
0
 62
     0
100
AcDbVertex
100
AcDb2dVertex
 10
1021.357358194184
 20
483.3828682387428
 30
3.646124999999996
 70
     8
  0
VERTEX
  5
5AF00
330
5AEEE
100
AcDbEntity
  8
0
 62
     0
100
AcDbVertex
100
AcDb2dVertex
 10
1021.560686196218
 20
483.3038219390964
 30
3.646124999999996
 70
     8
  0
VERTEX
  5
5AF01
330
5AEEE
100
AcDbEntity
  8
0
 62
     0
100
AcDbVertex
100
AcDb2dVertex
 10
1021.773418538481
 20
483.2177205052374
 30
3.646124999999996
 70
     8
  0
VERTEX
  5
5AF02
330
5AEEE
100
AcDbEntity
  8
0
 62
     0
100
AcDbVertex
100
AcDb2dVertex
 10
1021.996528080892
 20
483.126435707466
 30
3.646124999999996
 70
     8
  0
VERTEX
  5
5AF03
330
5AEEE
100
AcDbEntity
  8
0
 62
     0
100
AcDbVertex
100
AcDb2dVertex
 10
1022.230014821022
 20
483.0316953337543
 30
3.646124999999996
 70
     8
  0
VERTEX
  5
5AF04
330
5AEEE
100
AcDbEntity
  8
0
 62
     0
100
AcDbVertex
100
AcDb2dVertex
 10
1022.473878756454
 20
482.9352271720734
 30
3.646124999999996
 70
     8
  0
VERTEX
  5
5AF05
330
5AEEE
100
AcDbEntity
  8
0
 62
     0
100
AcDbVertex
100
AcDb2dVertex
 10
1022.728119884766
 20
482.8387590103909
 30
3.646124999999996
 70
     8
  0
VERTEX
  5
5AF06
330
5AEEE
100
AcDbEntity
  8
0
 62
     0
100
AcDbVertex
100
AcDb2dVertex
 10
1022.992738203538
 20
482.7440186366793
 30
3.646124999999996
 70
     8
  0
VERTEX
  5
5AF07
330
5AEEE
100
AcDbEntity
  8
0
 62
     0
100
AcDbVertex
100
AcDb2dVertex
 10
1023.267733710347
 20
482.6527338389093
 30
3.646124999999996
 70
     8
  0
VERTEX
  5
5AF08
330
5AEEE
100
AcDbEntity
  8
0
 62
     0
100
AcDbVertex
100
AcDb2dVertex
 10
1023.553106402772
 20
482.5666324050503
 30
3.646124999999996
 70
     8
  0
VERTEX
  5
5AF09
330
5AEEE
100
AcDbEntity
  8
0
 62
     0
100
AcDbVertex
100
AcDb2dVertex
 10
1023.848784215429
 20
482.4875141143382
 30
3.646124999999996
 70
     8
  0
VERTEX
  5
5AF0A
330
5AEEE
100
AcDbEntity
  8
0
 62
     0
100
AcDbVertex
100
AcDb2dVertex
 10
1024.154406831067
 20
482.4174667110754
 30
3.646124999999996
 70
     8
  0
VERTEX
  5
5AF0B
330
5AEEE
100
AcDbEntity
  8
0
 62
     0
100
AcDbVertex
100
AcDb2dVertex
 10
1024.46954186948
 20
482.3586499308293
 30
3.646124999999996
 70
     8
  0
VERTEX
  5
5AF0C
330
5AEEE
100
AcDbEntity
  8
0
 62
     0
100
AcDbVertex
100
AcDb2dVertex
 10
1024.793756950448
 20
482.313223509166
 30
3.646124999999996
 70
     8
  0
VERTEX
  5
5AF0D
330
5AEEE
100
AcDbEntity
  8
0
 62
     0
100
AcDbVertex
100
AcDb2dVertex
 10
1025.126619693766
 20
482.2833471816513
 30
3.646124999999996
 70
     8
  0
VERTEX
  5
5AF0E
330
5AEEE
100
AcDbEntity
  8
0
 62
     0
100
AcDbVertex
100
AcDb2dVertex
 10
1025.467697719222
 20
482.2711806838555
 30
3.646124999999996
 70
     8
  0
VERTEX
  5
5AF0F
330
5AEEE
100
AcDbEntity
  8
0
 62
     0
100
AcDbVertex
100
AcDb2dVertex
 10
1025.8165586466
 20
482.2788837513433
 30
3.646124999999996
 70
     8
  0
VERTEX
  5
5AF10
330
5AEEE
100
AcDbEntity
  8
0
 62
     0
100
AcDbVertex
100
AcDb2dVertex
 10
1026.172770095689
 20
482.3086161196835
 30
3.646124999999996
 70
     8
  0
VERTEX
  5
5AF11
330
5AEEE
100
AcDbEntity
  8
0
 62
     0
100
AcDbVertex
100
AcDb2dVertex
 10
1026.535755557524
 20
482.361385665392
 30
3.646124999999996
 70
     8
  0
VERTEX
  5
5AF12
330
5AEEE
100
AcDbEntity
  8
0
 62
     0
100
AcDbVertex
100
AcDb2dVertex
 10
1026.904362008119
 20
482.4335928287889
 30
3.646124999999996
 70
     8
  0
VERTEX
  5
5AF13
330
5AEEE
100
AcDbEntity
  8
0
 62
     0
100
AcDbVertex
100
AcDb2dVertex
 10
1027.277292294727
 20
482.5204861911413
 30
3.646124999999996
 70
     8
  0
VERTEX
  5
5AF14
330
5AEEE
100
AcDbEntity
  8
0
 62
     0
100
AcDbVertex
100
AcDb2dVertex
 10
1027.653249264612
 20
482.6173143337206
 30
3.646124999999996
 70
     8
  0
VERTEX
  5
5AF15
330
5AEEE
100
AcDbEntity
  8
0
 62
     0
100
AcDbVertex
100
AcDb2dVertex
 10
1028.030935765027
 20
482.7193258377941
 30
3.646124999999996
 70
     8
  0
VERTEX
  5
5AF16
330
5AEEE
100
AcDbEntity
  8
0
 62
     0
100
AcDbVertex
100
AcDb2dVertex
 10
1028.409054643236
 20
482.8217692846317
 30
3.646124999999996
 70
     8
  0
VERTEX
  5
5AF17
330
5AEEE
100
AcDbEntity
  8
0
 62
     0
100
AcDbVertex
100
AcDb2dVertex
 10
1028.78630874649
 20
482.9198932555034
 30
3.646124999999996
 70
     8
  0
VERTEX
  5
5AF18
330
5AEEE
100
AcDbEntity
  8
0
 62
     0
100
AcDbVertex
100
AcDb2dVertex
 10
1029.161400922055
 20
483.0089463316763
 30
3.646124999999996
 70
     8
  0
VERTEX
  5
5AF19
330
5AEEE
100
AcDbEntity
  8
0
 62
     0
100
AcDbVertex
100
AcDb2dVertex
 10
1029.532817827078
 20
483.0846810332821
 30
3.646124999999996
 70
     8
  0
VERTEX
  5
5AF1A
330
5AEEE
100
AcDbEntity
  8
0
 62
     0
100
AcDbVertex
100
AcDb2dVertex
 10
1029.898181358285
 20
483.1448656359066
 30
3.646124999999996
 70
     8
  0
VERTEX
  5
5AF1B
330
5AEEE
100
AcDbEntity
  8
0
 62
     0
100
AcDbVertex
100
AcDb2dVertex
 10
1030.254897222305
 20
483.1877723539933
 30
3.646124999999996
 70
     8
  0
VERTEX
  5
5AF1C
330
5AEEE
100
AcDbEntity
  8
0
 62
     0
100
AcDbVertex
100
AcDb2dVertex
 10
1030.600371125757
 20
483.2116734019881
 30
3.646124999999996
 70
     8
  0
VERTEX
  5
5AF1D
330
5AEEE
100
AcDbEntity
  8
0
 62
     0
100
AcDbVertex
100
AcDb2dVertex
 10
1030.932008775261
 20
483.2148409943402
 30
3.646124999999996
 70
     8
  0
VERTEX
  5
5AF1E
330
5AEEE
100
AcDbEntity
  8
0
 62
     0
100
AcDbVertex
100
AcDb2dVertex
 10
1031.247215877445
 20
483.1955473454912
 30
3.646124999999996
 70
     8
  0
VERTEX
  5
5AF1F
330
5AEEE
100
AcDbEntity
  8
0
 62
     0
100
AcDbVertex
100
AcDb2dVertex
 10
1031.543398138927
 20
483.1520646698904
 30
3.646124999999996
 70
     8
  0
VERTEX
  5
5AF20
330
5AEEE
100
AcDbEntity
  8
0
 62
     0
100
AcDbVertex
100
AcDb2dVertex
 10
1031.817961266332
 20
483.0826651819807
 30
3.646124999999996
 70
     8
  0
VERTEX
  5
5AF21
330
5AEEE
100
AcDbEntity
  8
0
 62
     0
100
AcDbVertex
100
AcDb2dVertex
 10
1032.069463986232
 20
482.986772954053
 30
3.646124999999996
 70
     8
  0
VERTEX
  5
5AF22
330
5AEEE
100
AcDbEntity
  8
0
 62
     0
100
AcDbVertex
100
AcDb2dVertex
 10
1032.301077105007
 20
482.8684194897582
 30
3.646124999999996
 70
     8
  0
VERTEX
  5
5AF23
330
5AEEE
100
AcDbEntity
  8
0
 62
     0
100
AcDbVertex
100
AcDb2dVertex
 10
1032.517124448991
 20
482.7327881505918
 30
3.646124999999996
 70
     8
  0
VERTEX
  5
5AF24
330
5AEEE
100
AcDbEntity
  8
0
 62
     0
100
AcDbVertex
100
AcDb2dVertex
 10
1032.721929844515
 20
482.5850622980494
 30
3.646124999999996
 70
     8
  0
VERTEX
  5
5AF25
330
5AEEE
100
AcDbEntity
  8
0
 62
     0
100
AcDbVertex
100
AcDb2dVertex
 10
1032.919817117905
 20
482.4304252936252
 30
3.646124999999996
 70
     8
  0
VERTEX
  5
5AF26
330
5AEEE
100
AcDbEntity
  8
0
 62
     0
100
AcDbVertex
100
AcDb2dVertex
 10
1033.115110095497
 20
482.2740604988147
 30
3.646124999999996
 70
     8
  0
VERTEX
  5
5AF27
330
5AEEE
100
AcDbEntity
  8
0
 62
     0
100
AcDbVertex
100
AcDb2dVertex
 10
1033.312132603623
 20
482.1211512751104
 30
3.646124999999996
 70
     8
  0
VERTEX
  5
5AF28
330
5AEEE
100
AcDbEntity
  8
0
 62
     0
100
AcDbVertex
100
AcDb2dVertex
 10
1033.515208468613
 20
481.9768809840108
 30
3.646124999999996
 70
     8
  0
VERTEX
  5
5AF29
330
5AEEE
100
AcDbEntity
  8
0
 62
     0
100
AcDbVertex
100
AcDb2dVertex
 10
1033.728589453228
 20
481.8458210629579
 30
3.646124999999996
 70
     8
  0
VERTEX
  5
5AF2A
330
5AEEE
100
AcDbEntity
  8
0
 62
     0
100
AcDbVertex
100
AcDb2dVertex
 10
1033.956239065946
 20
481.7300952531961
 30
3.646124999999996
 70
     8
  0
VERTEX
  5
5AF2B
330
5AEEE
100
AcDbEntity
  8
0
 62
     0
100
AcDbVertex
100
AcDb2dVertex
 10
1034.202048751676
 20
481.6312153719162
 30
3.646124999999996
 70
     8
  0
VERTEX
  5
5AF2C
330
5AEEE
100
AcDbEntity
  8
0
 62
     0
100
AcDbVertex
100
AcDb2dVertex
 10
1034.46990995533
 20
481.5506932363121
 30
3.646124999999996
 70
     8
  0
VERTEX
  5
5AF2D
330
5AEEE
100
AcDbEntity
  8
0
 62
     0
100
AcDbVertex
100
AcDb2dVertex
 10
1034.763714121814
 20
481.4900406635774
 30
3.646124999999996
 70
     8
  0
VERTEX
  5
5AF2E
330
5AEEE
100
AcDbEntity
  8
0
 62
     0
100
AcDbVertex
100
AcDb2dVertex
 10
1035.087352696035
 20
481.4507694709016
 30
3.646124999999996
 70
     8
  0
VERTEX
  5
5AF2F
330
5AEEE
100
AcDbEntity
  8
0
 62
     0
100
AcDbVertex
100
AcDb2dVertex
 10
1035.444717122906
 20
481.4343914754799
 30
3.646124999999996
 70
     8
  0
VERTEX
  5
5AF30
330
5AEEE
100
AcDbEntity
  8
0
 62
     0
100
AcDbVertex
100
AcDb2dVertex
 10
1035.839698847335
 20
481.4424184945029
 30
3.646124999999996
 70
     8
  0
VERTEX
  5
5AF31
330
5AEEE
100
AcDbEntity
  8
0
 62
     0
100
AcDbVertex
100
AcDb2dVertex
 10
1036.275973123719
 20
481.4740586268639
 30
3.646124999999996
 70
     8
  0
VERTEX
  5
5AF32
330
5AEEE
100
AcDbEntity
  8
0
 62
     0
100
AcDbVertex
100
AcDb2dVertex
 10
1036.756350444423
 20
481.519305098251
 30
3.646124999999996
 70
     8
  0
VERTEX
  5
5AF33
330
5AEEE
100
AcDbEntity
  8
0
 62
     0
100
AcDbVertex
100
AcDb2dVertex
 10
1037.283425111297
 20
481.5658474160533
 30
3.646124999999996
 70
     8
  0
VERTEX
  5
5AF34
330
5AEEE
100
AcDbEntity
  8
0
 62
     0
100
AcDbVertex
100
AcDb2dVertex
 10
1037.859791426189
 20
481.6013750876584
 30
3.646124999999996
 70
     8
  0
VERTEX
  5
5AF35
330
5AEEE
100
AcDbEntity
  8
0
 62
     0
100
AcDbVertex
100
AcDb2dVertex
 10
1038.488043690959
 20
481.6135776204554
 30
3.646124999999996
 70
     8
  0
VERTEX
  5
5AF36
330
5AEEE
100
AcDbEntity
  8
0
 62
     0
100
AcDbVertex
100
AcDb2dVertex
 10
1039.170776207454
 20
481.5901445218301
 30
3.646124999999996
 70
     8
  0
VERTEX
  5
5AF37
330
5AEEE
100
AcDbEntity
  8
0
 62
     0
100
AcDbVertex
100
AcDb2dVertex
 10
1039.910583277523
 20
481.5187652991732
 30
3.646124999999996
 70
     8
  0
VERTEX
  5
5AF38
330
5AEEE
100
AcDbEntity
  8
0
 62
     0
100
AcDbVertex
100
AcDb2dVertex
 10
1040.710059203025
 20
481.3871294598722
 30
3.646124999999996
 70
     8
  0
VERTEX
  5
5AF39
330
5AEEE
100
AcDbEntity
  8
0
 62
     0
100
AcDbVertex
100
AcDb2dVertex
 10
1017.686536357035
 20
482.9352271720734
 30
3.646124999999996
 70
    16
  0
VERTEX
  5
5AF3A
330
5AEEE
100
AcDbEntity
  8
0
 62
     0
100
AcDbVertex
100
AcDb2dVertex
 10
1020.121716586531
 20
483.8198546129291
 30
3.646124999999996
 70
    16
  0
VERTEX
  5
5AF3B
330
5AEEE
100
AcDbEntity
  8
0
 62
     0
100
AcDbVertex
100
AcDb2dVertex
 10
1021.449996035522
 20
483.3775408925013
 30
3.646124999999996
 70
    16
  0
VERTEX
  5
5AF3C
330
5AEEE
100
AcDbEntity
  8
0
 62
     0
100
AcDbVertex
100
AcDb2dVertex
 10
1023.442416448691
 20
482.4929134516454
 30
3.646124999999996
 70
    16
  0
VERTEX
  5
5AF3D
330
5AEEE
100
AcDbEntity
  8
0
 62
     0
100
AcDbVertex
100
AcDb2dVertex
 10
1026.098976586353
 20
482.0505997312176
 30
3.646124999999996
 70
    16
  0
VERTEX
  5
5AF3E
330
5AEEE
100
AcDbEntity
  8
0
 62
     0
100
AcDbVertex
100
AcDb2dVertex
 10
1029.19829778003
 20
483.1563843415837
 30
3.646124999999996
 70
    16
  0
VERTEX
  5
5AF3F
330
5AEEE
100
AcDbEntity
  8
0
 62
     0
100
AcDbVertex
100
AcDb2dVertex
 10
1032.076237825857
 20
483.3775408925013
 30
3.646124999999996
 70
    16
  0
VERTEX
  5
5AF40
330
5AEEE
100
AcDbEntity
  8
0
 62
     0
100
AcDbVertex
100
AcDb2dVertex
 10
1033.404518514531
 20
481.8294431803001
 30
3.646124999999996
 70
    16
  0
VERTEX
  5
5AF41
330
5AEEE
100
AcDbEntity
  8
0
 62
     0
100
AcDbVertex
100
AcDb2dVertex
 10
1035.396938927697
 20
481.1659722903619
 30
3.646124999999996
 70
    16
  0
VERTEX
  5
5AF42
330
5AEEE
100
AcDbEntity
  8
0
 62
     0
100
AcDbVertex
100
AcDb2dVertex
 10
1038.496258881693
 20
481.8294431803001
 30
3.646124999999996
 70
    16
  0
VERTEX
  5
5AF43
330
5AEEE
100
AcDbEntity
  8
0
 62
     0
100
AcDbVertex
100
AcDb2dVertex
 10
1040.710059203025
 20
481.3871294598722
 30
3.646124999999996
 70
    16
  0
SEQEND
  5
5AF44
330
5AEEE
100
AcDbEntity
  8
0
 62
     0
  0
LINE
  5
5AF45
330
458D6
100
AcDbEntity
  8
0
 62
     0
100
AcDbLine
 10
1039.741368117534
 20
481.5350917808616
 30
3.646124999999996
 11
1045.907648969433
 21
508.5894241940701
 31
3.646124999999996
  0
LINE
  5
5AF46
330
458D6
100
AcDbEntity
  8
0
 62
     0
100
AcDbLine
 10
1037.002385044716
 20
481.5410307118642
 30
3.646124999999996
 11
1041.417805212976
 21
508.5894241940701
 31
3.646124999999996
  0
LINE
  5
5AF47
330
458D6
100
AcDbEntity
  8
0
 62
     0
100
AcDbLine
 10
1036.349172867255
 20
481.4809532698011
 30
3.646124999999996
 11
1040.774400166929
 21
508.5894241940701
 31
3.646124999999996
  0
LINE
  5
5AF48
330
458D6
100
AcDbEntity
  8
0
 62
     0
100
AcDbLine
 10
1033.00813471935
 20
482.3597122357456
 30
3.646124999999996
 11
1035.169467471596
 21
508.5894241940701
 31
3.646124999999996
  0
LINE
  5
5AF49
330
458D6
100
AcDbEntity
  8
0
 62
     0
100
AcDbLine
 10
1032.407400124583
 20
482.8016714647054
 30
3.646124999999996
 11
1034.53231536076
 21
508.5894241940701
 31
3.646124999999996
  0
LINE
  5
5AF4A
330
458D6
100
AcDbEntity
  8
0
 62
     0
100
AcDbLine
 10
1028.674975841503
 20
482.8909355142035
 30
3.646124999999996
 11
1028.674975841503
 21
508.5894241940701
 31
3.646124999999996
  0
LINE
  5
5AF4B
330
458D6
100
AcDbEntity
  8
0
 62
     0
100
AcDbLine
 10
1028.039975841503
 20
482.7217750585211
 30
3.646124999999996
 11
1028.039975841503
 21
508.5894241940701
 31
3.646124999999996
  0
LINE
  5
5AF4C
330
458D6
100
AcDbEntity
  8
0
 62
     0
100
AcDbLine
 10
1024.417914333351
 20
482.3682856903507
 30
3.646124999999996
 11
1022.257288035231
 21
508.5894241940701
 31
3.646124999999996
  0
LINE
  5
5AF4D
330
458D6
100
AcDbEntity
  8
0
 62
     0
100
AcDbLine
 10
1023.769182655803
 20
482.5088141208523
 30
3.646124999999996
 11
1021.620135924394
 21
508.5894241940701
 31
3.646124999999996
  0
LINE
  5
5AF4E
330
458D6
100
AcDbEntity
  8
0
 62
     0
100
AcDbLine
 10
1020.099183122058
 20
483.5713985227585
 30
3.646124999999996
 11
1016.015203229062
 21
508.5894241940701
 31
3.646124999999996
  0
LINE
  5
5AF4F
330
458D6
100
AcDbEntity
  8
0
 62
     0
100
AcDbLine
 10
1019.472577535666
 20
483.4684868229082
 30
3.646124999999996
 11
1015.371798183011
 21
508.5894241940701
 31
3.646124999999996
  0
LINE
  5
5AF50
330
458D6
100
AcDbEntity
  8
0
 62
     0
100
AcDbLine
 10
1016.887573840764
 20
482.2399879809666
 30
3.646124999999996
 11
1010.881954426559
 21
508.5894241940701
 31
3.646124999999996
  0
LINE
  5
5AF51
330
458D6
100
AcDbEntity
  8
0
 62
     0
100
AcDbLine
 10
1016.321780708361
 20
481.8648962695053
 30
3.646124999999996
 11
1010.23066959535
 21
508.5894241940701
 31
3.646124999999996
  0
LINE
  5
5AF52
330
458D6
100
AcDbEntity
  8
0
 62
     0
100
AcDbLine
 10
1040.371629641769
 20
481.4428527880171
 30
3.646124999999996
 11
1046.558933800642
 21
508.5894241940701
 31
3.646124999999996
  0
LINE
  5
5AF53
330
458D6
100
AcDbEntity
  8
0
 62
     0
100
AcDbLine
 10
1010.23066959535
 20
508.5894241940701
 30
3.646124999999996
 11
1010.881954426559
 21
508.5894241940701
 31
3.646124999999996
  0
LWPOLYLINE
  5
5AF54
330
458D6
100
AcDbEntity
  8
0
 62
     0
100
AcDbPolyline
 90
        2
 70
     0
 43
0.127
 38
3.646124999999983
 10
1046.233291385037
 20
508.5894241940701
 10
1048.053442414726
 20
516.5752704735648
  0
LWPOLYLINE
  5
5AF55
330
458D6
100
AcDbEntity
  8
0
 62
     0
100
AcDbPolyline
 90
        2
 70
     0
 43
0.127
 38
3.646124999999983
 10
1041.096102689953
 20
508.5894241940701
 10
1042.402891663201
 20
516.5946742041876
  0
LWPOLYLINE
  5
5AF56
330
458D6
100
AcDbEntity
  8
0
 62
     0
100
AcDbPolyline
 90
        2
 70
     0
 43
0.127
 38
3.646124999999983
 10
1034.850891416179
 20
508.5894241940701
 10
1035.512591852781
 20
516.6197526276326
  0
LWPOLYLINE
  5
5AF57
330
458D6
100
AcDbEntity
  8
0
 62
     0
100
AcDbPolyline
 90
        2
 70
     0
 43
0.127
 38
3.646124999999983
 10
1028.357475841502
 20
508.5894241940701
 10
1028.357475841502
 20
516.6458263142856
  0
LWPOLYLINE
  5
5AF58
330
458D6
100
AcDbEntity
  8
0
 62
     0
100
AcDbPolyline
 90
        2
 70
     0
 43
0.127
 38
3.646124999999983
 10
1021.938711979812
 20
508.5894241940701
 10
1021.27271459073
 20
516.6719000009386
  0
LWPOLYLINE
  5
5AF59
330
458D6
100
AcDbEntity
  8
0
 62
     0
100
AcDbPolyline
 90
        2
 70
     0
 43
0.127
 38
3.646124999999983
 10
1015.693500706038
 20
508.5894241940701
 10
1014.370011439023
 20
516.6969784243836
  0
LWPOLYLINE
  5
5AF5A
330
458D6
100
AcDbEntity
  8
0
 62
     0
100
AcDbPolyline
 90
        2
 70
     0
 43
0.127
 38
3.646124999999983
 10
1010.556312010955
 20
508.5894241940701
 10
1008.703998507401
 20
516.7163821550046
  0
LINE
  5
5AF5B
330
458D6
100
AcDbEntity
  8
0
 62
     0
100
AcDbLine
 10
1045.907648969433
 20
508.5894241940701
 30
3.646124999999996
 11
1046.558933800642
 21
508.5894241940701
 31
3.646124999999996
  0
LINE
  5
5AF5C
330
458D6
100
AcDbEntity
  8
0
 62
     0
100
AcDbLine
 10
1040.774400166929
 20
508.5894241940701
 30
3.646124999999996
 11
1041.417805212976
 21
508.5894241940701
 31
3.646124999999996
  0
LINE
  5
5AF5D
330
458D6
100
AcDbEntity
  8
0
 62
     0
100
AcDbLine
 10
1034.53231536076
 20
508.5894241940701
 30
3.646124999999996
 11
1035.169467471596
 21
508.5894241940701
 31
3.646124999999996
  0
LINE
  5
5AF5E
330
458D6
100
AcDbEntity
  8
0
 62
     0
100
AcDbLine
 10
1028.039975841503
 20
508.5894241940701
 30
3.646124999999996
 11
1028.674975841503
 21
508.5894241940701
 31
3.646124999999996
  0
LINE
  5
5AF5F
330
458D6
100
AcDbEntity
  8
0
 62
     0
100
AcDbLine
 10
1021.620135924394
 20
508.5894241940701
 30
3.646124999999996
 11
1022.257288035231
 21
508.5894241940701
 31
3.646124999999996
  0
LINE
  5
5AF60
330
458D6
100
AcDbEntity
  8
0
 62
     0
100
AcDbLine
 10
1015.371798183011
 20
508.5894241940701
 30
3.646124999999996
 11
1016.015203229062
 21
508.5894241940701
 31
3.646124999999996
  0
DIMENSION
  5
5B11A
330
458D6
100
AcDbEntity
  8
AREA1
100
AcDbDimension
  2
*D3
 10
1053.503475841504
 20
342.9435333905675
 30
3.646124999999996
 11
1087.621779286112
 21
342.9435333905675
 31
3.646124999999996
 70
   160
 71
     5
 42
29.71800000000098
  3
ABECAD_3D
100
AcDbAlignedDimension
 13
1023.785475841503
 23
354.6411969198664
 33
3.646124999999996
 14
1053.503475841504
 24
356.5461969198661
 34
3.646124999999996
100
AcDbRotatedDimension
  0
LINE
  5
5B127
330
458D6
100
AcDbEntity
  8
0
100
AcDbLine
 10
1012.838886368555
 20
365.4796676958836
 30
3.646124999999996
 11
1012.878419481668
 21
341.5847833139176
 31
3.646124999999996
  0
DIMENSION
  5
5B129
330
458D6
100
AcDbEntity
  8
AREA1
100
AcDbDimension
  2
*D4
 10
1053.503475841504
 20
328.7110991968377
 30
3.646124999999996
 11
1087.128223055704
 21
328.7110991968377
 31
3.646124999999996
 70
   160
 71
     5
 42
40.62505635983552
  3
ABECAD_3D
100
AcDbAlignedDimension
 13
1012.878419481668
 23
341.5847833139176
 33
3.646124999999996
 14
1053.503475841504
 24
354.9586969198662
 34
3.646124999999996
100
AcDbRotatedDimension
  0
DIMENSION
  5
5B136
330
458D6
100
AcDbEntity
  8
AREA1
100
AcDbDimension
  2
*D5
 10
1067.199070395453
 20
354.6411969198664
 30
3.646124999999996
 11
1067.199070395453
 21
380.0411969198666
 31
3.646124999999996
 70
   160
 71
     5
 42
50.80000000000024
 53
90.0
  3
ABECAD_3D
100
AcDbAlignedDimension
 13
1051.598475841504
 23
405.4411969198667
 33
3.646124999999996
 14
1051.163830253832
 24
354.6411969198664
 34
3.646124999999996
 50
90.0
100
AcDbRotatedDimension
  0
DIMENSION
  5
5B145
330
458D6
100
AcDbEntity
  8
AREA1
100
AcDbDimension
  2
*D6
 10
1028.357475841502
 20
420.9000806855511
 30
3.646124999999996
 11
989.4772910437447
 21
420.7580819436337
 31
3.646124999999996
 70
   160
 71
     5
 42
4.571999999998979
  3
ABECAD_3D
100
AcDbAlignedDimension
 13
1023.785475841503
 23
405.4411969198664
 33
3.646124999999996
 14
1028.357475841502
 24
405.4411969198664
 34
3.646124999999996
100
AcDbRotatedDimension
  0
DIMENSION
  5
5B153
330
458D6
100
AcDbEntity
  8
AREA1
100
AcDbDimension
  2
*D7
 10
1051.365834128115
 20
405.4411969198667
 30
3.646124999999996
 11
1051.365834128115
 21
461.0082336967153
 31
3.646124999999996
 70
   160
  1
457 [18]
 71
     5
 42
111.1340735536981
 53
90.0
  3
ABECAD_3D
100
AcDbAlignedDimension
 13
1048.053442414726
 23
516.5752704735648
 33
3.646124999999983
 14
1048.518725841504
 24
405.4411969198667
 34
3.646124999999996
 50
90.0
100
AcDbRotatedDimension
  0
DIMENSION
  5
5B18A
330
458D6
100
AcDbEntity
  8
AREA1
100
AcDbDimension
  2
*D8
 10
996.4703531418582
 20
440.4458263142839
 30
3.646124999999996
 11
996.4703531418582
 21
478.2230310510943
 31
3.646124999999996
 70
   160
 71
     5
 42
76.27055584072071
 53
90.0
  3
ABECAD_3D
100
AcDbAlignedDimension
 13
1008.703998507401
 23
516.7163821550046
 33
3.646124999999983
 14
1025.058015841501
 24
440.4458263142839
 34
3.646124999999996
 50
90.0
100
AcDbRotatedDimension
  0
CIRCLE
  5
5B2CD
330
458D6
100
AcDbEntity
  8
0
100
AcDbCircle
 10
925.8945710854247
 20
383.7092017733611
 30
3.646124999999996
 40
25.4
  0
ARC
  5
5B2CE
330
458D6
100
AcDbEntity
  8
CENTER
100
AcDbCircle
 10
925.8945710854247
 20
383.7092017733611
 30
3.646124999999996
 40
30.16249999999999
100
AcDbArc
 50
120.0000000000005
 51
180.0
  0
ARC
  5
5B2CF
330
458D6
100
AcDbEntity
  8
0
100
AcDbCircle
 10
925.8945710854247
 20
383.7092017733611
 30
3.646124999999996
 40
31.8135
100
AcDbArc
 50
124.5793873499104
 51
175.4238054238951
  0
ARC
  5
5B2D0
330
458D6
100
AcDbEntity
  8
0
100
AcDbCircle
 10
925.8945710854247
 20
383.7092017733611
 30
3.646124999999996
 40
28.5115
100
AcDbArc
 50
125.1110769852925
 51
174.9203986441378
  0
LINE
  5
5B2D1
330
458D6
100
AcDbEntity
  8
CENTER
100
AcDbLine
 10
925.8945710854247
 20
367.661759112647
 30
3.646124999999996
 11
925.8945710854247
 21
396.9558703442489
 31
3.646124999999996
  0
LINE
  5
5B2D2
330
458D6
100
AcDbEntity
  8
0
100
AcDbLine
 10
925.8945710854247
 20
383.7092017733611
 30
3.646124999999996
 11
925.8945710854247
 21
383.7092017733611
 31
3.646124999999996
  0
LINE
  5
5B2D4
330
458D6
100
AcDbEntity
  8
CENTER
100
AcDbLine
 10
908.3600736698475
 20
393.8754521502804
 30
3.646124999999996
 11
962.8570669481833
 21
362.3688948370767
 31
3.646124999999996
  0
ARC
  5
5B2D5
330
458D6
100
AcDbEntity
  8
0
100
AcDbCircle
 10
925.8945710854247
 20
383.7092017733611
 30
3.646124999999996
 40
34.29
100
AcDbArc
 50
122.2042275039716
 51
177.7895536786833
  0
LINE
  5
5B2D6
330
458D6
100
AcDbEntity
  8
0
100
AcDbLine
 10
937.7134676693907
 20
404.1801311461888
 30
3.646124999999996
 11
942.3923550275199
 21
412.2842017733612
 31
3.646124999999996
  0
LINE
  5
5B2D7
330
458D6
100
AcDbEntity
  8
0
100
AcDbLine
 10
909.3967871433321
 20
412.2842017733612
 30
3.646124999999996
 11
914.0756745014613
 21
404.1801311461888
 31
3.646124999999996
  0
LINE
  5
5B2D8
330
458D6
100
AcDbEntity
  8
0
100
AcDbLine
 10
915.7345710854251
 20
404.6246311461898
 30
3.646124999999996
 11
915.7345710854251
 21
415.5099611982549
 31
3.646124999999996
  0
LINE
  5
5B2D9
330
458D6
100
AcDbEntity
  8
0
100
AcDbLine
 10
936.0545710854268
 20
404.6246311461898
 30
3.646124999999996
 11
936.0545710854268
 21
415.5099611982549
 31
3.646124999999996
  0
ARC
  5
5B2DA
330
458D6
100
AcDbEntity
  8
0
100
AcDbCircle
 10
914.8455710854259
 20
404.6246311461898
 30
3.646124999999996
 40
0.889
100
AcDbArc
 50
210.0000000000004
 51
0.0
  0
ARC
  5
5B2DB
330
458D6
100
AcDbEntity
  8
0
100
AcDbCircle
 10
936.943571085426
 20
404.6246311461898
 30
3.646124999999996
 40
0.889
100
AcDbArc
 50
180.0
 51
329.9999999999994
  0
ARC
  5
5B2DC
330
458D6
100
AcDbEntity
  8
0
100
AcDbCircle
 10
938.6310747376596
 20
363.601562899535
 30
3.646124999999996
 40
0.889
100
AcDbArc
 50
60.23927655520898
 51
210.2392765552062
  0
LINE
  5
5B2DD
330
458D6
100
AcDbEntity
  8
0
100
AcDbLine
 10
939.0723556567207
 20
364.3733090692522
 30
3.646124999999996
 11
948.3952861615652
 21
359.0425001803498
 31
3.646124999999996
  0
LINE
  5
5B2DE
330
458D6
100
AcDbEntity
  8
0
100
AcDbLine
 10
937.8630411666897
 20
363.1538515708167
 30
3.646124999999996
 11
942.5009355446407
 21
355.1977013633356
 31
3.646124999999996
  0
LINE
  5
5B2DF
330
458D6
100
AcDbEntity
  8
0
100
AcDbLine
 10
949.1587766637993
 20
382.0132215199415
 30
3.646124999999996
 11
958.5226854474855
 21
376.6589814392057
 31
3.646124999999996
  0
ARC
  5
5B2E0
330
458D6
100
AcDbEntity
  8
0
100
AcDbCircle
 10
949.6000575828606
 20
382.7849676896588
 30
3.646124999999996
 40
0.889
100
AcDbArc
 50
90.23927655520482
 51
240.239276555209
  0
LINE
  5
5B2E1
330
458D6
100
AcDbEntity
  8
0
100
AcDbLine
 10
958.8953046434307
 20
383.7127941410794
 30
3.646124999999996
 11
949.5963449841118
 21
383.6739599374382
 31
3.646124999999996
  0
LINE
  5
5B2E2
330
458D6
100
AcDbEntity
  8
0
100
AcDbLine
 10
892.8938375274213
 20
383.7127941410794
 30
3.646124999999996
 11
902.1927971867404
 21
383.6739599374382
 31
3.646124999999996
  0
LINE
  5
5B2E3
330
458D6
100
AcDbEntity
  8
0
100
AcDbLine
 10
902.6303655070528
 20
382.0132215199415
 30
3.646124999999996
 11
893.2664567233665
 21
376.6589814392057
 31
3.646124999999996
  0
ARC
  5
5B2E4
330
458D6
100
AcDbEntity
  8
0
100
AcDbCircle
 10
902.1890845879944
 20
382.7849676896588
 30
3.646124999999996
 40
0.889
100
AcDbArc
 50
299.760723444791
 51
89.76072344479517
  0
LINE
  5
5B2E5
330
458D6
100
AcDbEntity
  8
0
100
AcDbLine
 10
912.7167865141313
 20
364.3733090692522
 30
3.646124999999996
 11
903.393856009287
 21
359.0425001803498
 31
3.646124999999996
  0
ARC
  5
5B2E6
330
458D6
100
AcDbEntity
  8
0
100
AcDbCircle
 10
913.1580674331924
 20
363.601562899535
 30
3.646124999999996
 40
0.889
100
AcDbArc
 50
329.7607234447937
 51
119.760723444791
  0
LINE
  5
5B2E7
330
458D6
100
AcDbEntity
  8
0
100
AcDbLine
 10
913.9261010041623
 20
363.1538515708167
 30
3.646124999999996
 11
909.2882066262113
 21
355.1977013633356
 31
3.646124999999996
  0
ARC
  5
5B2E8
330
458D6
100
AcDbEntity
  8
0
100
AcDbCircle
 10
925.8945710854247
 20
383.7092017733611
 30
3.646124999999996
 40
34.29
100
AcDbArc
 50
2.210446321316658
 51
57.79577249602835
  0
ARC
  5
5B2E9
330
458D6
100
AcDbEntity
  8
0
100
AcDbCircle
 10
925.8945710854247
 20
383.7092017733611
 30
3.646124999999996
 40
31.8135
100
AcDbArc
 50
4.576194576104845
 51
55.42061265008957
  0
ARC
  5
5B2EA
330
458D6
100
AcDbEntity
  8
CENTER
100
AcDbCircle
 10
925.8945710854247
 20
383.7092017733611
 30
3.646124999999996
 40
30.16249999999999
100
AcDbArc
 50
359.9843083476306
 51
59.99999999999946
  0
ARC
  5
5B2EB
330
458D6
100
AcDbEntity
  8
0
100
AcDbCircle
 10
925.8945710854247
 20
383.7092017733611
 30
3.646124999999996
 40
28.5115
100
AcDbArc
 50
5.079601355862158
 51
54.88892301470742
  0
ARC
  5
5B2EC
330
458D6
100
AcDbEntity
  8
0
100
AcDbCircle
 10
925.8945710854247
 20
383.7092017733611
 30
3.646124999999996
 40
34.29
100
AcDbArc
 50
241.9858050052287
 51
298.0141949947712
  0
ARC
  5
5B2ED
330
458D6
100
AcDbEntity
  8
0
100
AcDbCircle
 10
925.8945710854247
 20
383.7092017733611
 30
3.646124999999996
 40
31.8135
100
AcDbArc
 50
244.3618091530543
 51
295.6381908469456
  0
ARC
  5
5B2EE
330
458D6
100
AcDbEntity
  8
CENTER
100
AcDbCircle
 10
925.8945710854247
 20
383.7092017733611
 30
3.646124999999996
 40
30.16249999999999
100
AcDbArc
 50
239.7835360968876
 51
300.2164639031123
  0
ARC
  5
5B2EF
330
458D6
100
AcDbEntity
  8
0
100
AcDbCircle
 10
925.8945710854247
 20
383.7092017733611
 30
3.646124999999996
 40
28.5115
100
AcDbArc
 50
244.8960308822504
 51
295.1039691177481
  0
ARC
  5
5B2F0
330
458D6
100
AcDbEntity
  8
0
100
AcDbCircle
 10
908.2969348805264
 20
411.6492017733603
 30
3.646124999999996
 40
1.27
100
AcDbArc
 50
30.00000000000054
 51
122.2042275039716
  0
ARC
  5
5B2F1
330
458D6
100
AcDbEntity
  8
0
100
AcDbCircle
 10
892.8991412399176
 20
384.9827830664777
 30
3.646124999999996
 40
1.27
100
AcDbArc
 50
177.7895536786833
 51
269.7607234447951
  0
ARC
  5
5B2F2
330
458D6
100
AcDbEntity
  8
0
100
AcDbCircle
 10
910.3853974418827
 20
354.5581137508798
 30
3.646124999999996
 40
1.27
100
AcDbArc
 50
149.7607234447909
 51
241.9858050052287
  0
ARC
  5
5B2F3
330
458D6
100
AcDbEntity
  8
0
100
AcDbCircle
 10
941.4037447289693
 20
354.5581137508798
 30
3.646124999999996
 40
1.27
100
AcDbArc
 50
298.0141949947712
 51
30.23927655520626
  0
ARC
  5
5B2F4
330
458D6
100
AcDbEntity
  8
0
100
AcDbCircle
 10
958.8900009309345
 20
384.9827830664777
 30
3.646124999999996
 40
1.27
100
AcDbArc
 50
270.2392765552113
 51
2.210446321316658
  0
ARC
  5
5B2F5
330
458D6
100
AcDbEntity
  8
0
100
AcDbCircle
 10
943.4922072903258
 20
411.6492017733603
 30
3.646124999999996
 40
1.27
100
AcDbArc
 50
57.79577249602835
 51
149.9999999999994
  0
ARC
  5
5B2F6
330
458D6
100
AcDbEntity
  8
0
100
AcDbCircle
 10
895.8405605279304
 20
386.6699100501043
 30
3.646124999999996
 40
1.711048501956207
100
AcDbArc
 50
194.2947516002034
 51
345.2266952893814
  0
ARC
  5
5B2F7
330
458D6
100
AcDbEntity
  8
0
100
AcDbCircle
 10
908.2793865436956
 20
408.2436382175398
 30
3.646124999999996
 40
1.716395478711012
100
AcDbArc
 50
315.1294021509325
 51
104.8705978490672
  0
ARC
  5
5B2F8
330
458D6
100
AcDbEntity
  8
0
100
AcDbCircle
 10
943.4952722019939
 20
408.2520002269554
 30
3.646124999999996
 40
1.712106629533422
100
AcDbArc
 50
74.58912241405731
 51
225.4108775859405
  0
ARC
  5
5B2F9
330
458D6
100
AcDbEntity
  8
0
100
AcDbCircle
 10
955.9485970815488
 20
386.666213227075
 30
3.646124999999996
 40
1.710124502026828
100
AcDbArc
 50
194.6534093239219
 51
345.8251437864957
  0
ARC
  5
5B2FA
330
458D6
100
AcDbEntity
  8
0
100
AcDbCircle
 10
938.4509075539803
 20
356.2411224214374
 30
3.646124999999996
 40
1.712717803240408
100
AcDbArc
 50
314.8993119744792
 51
105.5792411359353
  0
ARC
  5
5B2FB
330
458D6
100
AcDbEntity
  8
0
100
AcDbCircle
 10
913.3287617582446
 20
356.2466444536559
 30
3.646124999999996
 40
1.709975687892417
100
AcDbArc
 50
74.0653206130328
 51
225.4561262765523
  0
ARC
  5
5B2FC
330
458D6
100
AcDbEntity
  8
0
100
AcDbCircle
 10
925.8945710854247
 20
383.7092017733611
 30
3.646124999999996
 40
34.29
100
AcDbArc
 50
194.2942833018736
 51
225.5313927507597
  0
ARC
  5
5B2FD
330
458D6
100
AcDbEntity
  8
0
100
AcDbCircle
 10
925.8945710854247
 20
383.7092017733611
 30
3.646124999999996
 40
34.29
100
AcDbArc
 50
74.38150172435469
 51
105.6184982756452
  0
ARC
  5
5B2FE
330
458D6
100
AcDbEntity
  8
0
100
AcDbCircle
 10
925.8945710854247
 20
383.7092017733611
 30
3.646124999999996
 40
34.29
100
AcDbArc
 50
314.4686072492402
 51
345.7057166981263
  0
ARC
  5
5B2FF
330
458D6
100
AcDbEntity
  8
0
100
AcDbCircle
 10
917.0045710854267
 20
415.5099611982549
 30
3.646124999999996
 40
1.27
100
AcDbArc
 50
105.6184982756452
 51
180.0
  0
ARC
  5
5B300
330
458D6
100
AcDbEntity
  8
0
100
AcDbCircle
 10
934.7845710854253
 20
415.5099611982549
 30
3.646124999999996
 40
1.27
100
AcDbArc
 50
0.0
 51
74.38150172435469
  0
ARC
  5
5B301
330
458D6
100
AcDbEntity
  8
0
100
AcDbCircle
 10
957.8922841345443
 20
375.5564869110368
 30
3.646124999999996
 40
1.27
100
AcDbArc
 50
345.7057166981263
 51
60.23927655520898
  0
ARC
  5
5B302
330
458D6
100
AcDbEntity
  8
0
100
AcDbCircle
 10
949.0256874745062
 20
360.1449947085173
 30
3.646124999999996
 40
1.27
100
AcDbArc
 50
240.239276555209
 51
314.4686072492402
  0
ARC
  5
5B303
330
458D6
100
AcDbEntity
  8
0
100
AcDbCircle
 10
902.7634546963458
 20
360.1449947085173
 30
3.646124999999996
 40
1.27
100
AcDbArc
 50
225.5313927507597
 51
299.760723444791
  0
ARC
  5
5B304
330
458D6
100
AcDbEntity
  8
0
100
AcDbCircle
 10
893.8968580363075
 20
375.5564869110368
 30
3.646124999999996
 40
1.27
100
AcDbArc
 50
119.760723444791
 51
194.2942833018736
  0
LINE
  5
5B305
330
458D6
100
AcDbEntity
  8
HIDDEN
100
AcDbLine
 10
915.7345710854251
 20
412.7238171579759
 30
3.646124999999996
 11
936.0545710854268
 21
412.7238171579759
 31
3.646124999999996
  0
LINE
  5
5B306
330
458D6
100
AcDbEntity
  8
HIDDEN
100
AcDbLine
 10
895.5477231950865
 20
377.9633991412444
 30
3.646124999999996
 11
905.7513340357346
 21
360.3904952997223
 31
3.646124999999996
  0
LINE
  5
5B307
330
458D6
100
AcDbEntity
  8
HIDDEN
100
AcDbLine
 10
946.0069027598462
 20
360.4081668515076
 30
3.646124999999996
 11
956.1324103208621
 21
378.0257297899846
 31
3.646124999999996
  0
LINE
  5
5B308
330
458D6
100
AcDbEntity
  8
HIDDEN
100
AcDbLine
 10
915.6154676693905
 20
404.1801311461888
 30
3.646124999999996
 11
936.1736745014615
 21
404.1801311461888
 31
3.646124999999996
  0
LINE
  5
5B309
330
458D6
100
AcDbEntity
  8
HIDDEN
100
AcDbLine
 10
902.9571181589615
 20
382.3372563609406
 30
3.646124999999996
 11
913.1617800319382
 21
364.4905551473144
 31
3.646124999999996
  0
LINE
  5
5B30A
330
458D6
100
AcDbEntity
  8
HIDDEN
100
AcDbLine
 10
938.6273621389138
 20
364.4905551473144
 30
3.646124999999996
 11
948.8320240118904
 21
382.3372563609406
 31
3.646124999999996
  0
CIRCLE
  5
5B30B
330
458D6
100
AcDbEntity
  8
0
100
AcDbCircle
 10
925.8945710854247
 20
383.7092017733611
 30
3.646124999999996
 40
10.5654697550018
  0
ARC
  5
5B30C
330
458D6
100
AcDbEntity
  8
0
100
AcDbCircle
 10
925.8945710854247
 20
383.7092017733611
 30
3.646124999999996
 40
14.63815171836396
100
AcDbArc
 50
110.3062739088662
 51
189.6937260911343
  0
LINE
  5
5B30D
330
458D6
100
AcDbEntity
  8
0
100
AcDbLine
 10
920.8145710854264
 20
397.437606113627
 30
3.646124999999996
 11
920.8145710854264
 21
412.7238171579759
 31
3.646124999999996
  0
LINE
  5
5B30E
330
458D6
100
AcDbEntity
  8
0
100
AcDbLine
 10
930.9745710854256
 20
397.437606113627
 30
3.646124999999996
 11
930.9745710854256
 21
412.7238171579759
 31
3.646124999999996
  0
LINE
  5
5B30F
330
458D6
100
AcDbEntity
  8
0
100
AcDbLine
 10
898.1173637666856
 20
373.5379023855159
 30
3.646124999999996
 11
911.4654241733319
 21
381.244408654452
 31
3.646124999999996
  0
LINE
  5
5B310
330
458D6
100
AcDbEntity
  8
0
100
AcDbLine
 10
903.2190721326955
 20
364.7516176140271
 30
3.646124999999996
 11
916.5454241733302
 21
372.4455905520029
 31
3.646124999999996
  0
LINE
  5
5B311
330
458D6
100
AcDbEntity
  8
0
100
AcDbLine
 10
940.3237179975203
 20
381.244408654452
 30
3.646124999999996
 11
953.5826531581982
 21
373.5893588702683
 31
3.646124999999996
  0
LINE
  5
5B312
330
458D6
100
AcDbEntity
  8
0
100
AcDbLine
 10
935.2437179975218
 20
372.4455905520029
 30
3.646124999999996
 11
948.51990207799
 21
364.7805820993326
 31
3.646124999999996
  0
LINE
  5
5B313
330
458D6
100
AcDbEntity
  8
0
100
AcDbLine
 10
922.0845710854252
 20
396.4944477824373
 30
3.646124999999996
 11
922.0845710854252
 21
412.7238171579759
 31
3.646124999999996
  0
LINE
  5
5B314
330
458D6
100
AcDbEntity
  8
0
100
AcDbLine
 10
929.7045710854268
 20
396.4944477824373
 30
3.646124999999996
 11
929.7045710854268
 21
412.7238171579759
 31
3.646124999999996
  0
LINE
  5
5B315
330
458D6
100
AcDbEntity
  8
0
100
AcDbLine
 10
898.7550773124368
 20
372.4396167890803
 30
3.646124999999996
 11
912.9172232479326
 21
380.6161355572418
 31
3.646124999999996
  0
LINE
  5
5B316
330
458D6
100
AcDbEntity
  8
0
100
AcDbLine
 10
902.5813585869443
 20
365.8499032104626
 30
3.646124999999996
 11
916.7272232479321
 21
374.0170219804042
 31
3.646124999999996
  0
LINE
  5
5B317
330
458D6
100
AcDbEntity
  8
0
100
AcDbLine
 10
938.8719189229194
 20
380.6161355572418
 30
3.646124999999996
 11
952.9498092731726
 21
372.4882617739014
 31
3.646124999999996
  0
LINE
  5
5B318
330
458D6
100
AcDbEntity
  8
0
100
AcDbLine
 10
935.0619189229199
 20
374.0170219804042
 30
3.646124999999996
 11
949.1527459630157
 21
365.8816791956995
 31
3.646124999999996
  0
ARC
  5
5B319
330
458D6
100
AcDbEntity
  8
0
100
AcDbCircle
 10
925.8945710854247
 20
383.7092017733611
 30
3.646124999999996
 40
14.63815171836396
100
AcDbArc
 50
230.3062739088648
 51
309.6937260911352
  0
ARC
  5
5B31A
330
458D6
100
AcDbEntity
  8
0
100
AcDbCircle
 10
925.8945710854247
 20
383.7092017733611
 30
3.646124999999996
 40
14.63815171836396
100
AcDbArc
 50
350.3062739088656
 51
69.69372609113375
  0
LINE
  5
5B31B
330
458D6
100
AcDbEntity
  8
0
100
AcDbLine
 10
923.3545710854269
 20
395.224447782437
 30
3.646124999999996
 11
928.4345710854251
 21
395.224447782437
 31
3.646124999999996
  0
LINE
  5
5B31C
330
458D6
100
AcDbEntity
  8
0
100
AcDbLine
 10
914.6520755107378
 20
380.1512832944354
 30
3.646124999999996
 11
917.1920755107384
 21
375.7518742432109
 31
3.646124999999996
  0
LINE
  5
5B31D
330
458D6
100
AcDbEntity
  8
0
100
AcDbLine
 10
934.5970666601136
 20
375.7518742432109
 30
3.646124999999996
 11
937.1370666601141
 21
380.1512832944354
 31
3.646124999999996
  0
ARC
  5
5B31E
330
458D6
100
AcDbEntity
  8
0
100
AcDbCircle
 10
923.3545710854269
 20
396.4944477824373
 30
3.646124999999996
 40
1.27
100
AcDbArc
 50
180.0
 51
270.0
  0
ARC
  5
5B31F
330
458D6
100
AcDbEntity
  8
0
100
AcDbCircle
 10
928.4345710854251
 20
396.4944477824373
 30
3.646124999999996
 40
1.27
100
AcDbArc
 50
270.0
 51
0.0
  0
ARC
  5
5B320
330
458D6
100
AcDbEntity
  8
0
100
AcDbCircle
 10
913.5522232479321
 20
379.516283294436
 30
3.646124999999996
 40
1.27
100
AcDbArc
 50
30.00000000000054
 51
120.0000000000005
  0
ARC
  5
5B321
330
458D6
100
AcDbEntity
  8
0
100
AcDbCircle
 10
916.0922232479327
 20
375.11687424321
 30
3.646124999999996
 40
1.27
100
AcDbArc
 50
300.0000000000005
 51
30.00000000000054
  0
ARC
  5
5B322
330
458D6
100
AcDbEntity
  8
0
100
AcDbCircle
 10
935.6969189229193
 20
375.11687424321
 30
3.646124999999996
 40
1.27
100
AcDbArc
 50
149.9999999999994
 51
239.9999999999994
  0
ARC
  5
5B323
330
458D6
100
AcDbEntity
  8
0
100
AcDbCircle
 10
938.23691892292
 20
379.516283294436
 30
3.646124999999996
 40
1.27
100
AcDbArc
 50
59.99999999999946
 51
149.9999999999994
  0
CIRCLE
  5
5B324
330
458D6
100
AcDbEntity
  8
0
100
AcDbCircle
 10
925.8945710854247
 20
383.7092017733611
 30
3.646124999999996
 40
4.800599999999999
  0
CIRCLE
  5
5B325
330
458D6
100
AcDbEntity
  8
0
100
AcDbCircle
 10
925.8945710854247
 20
383.7092017733611
 30
3.646124999999996
 40
5.66124209747846
  0
CIRCLE
  5
5B326
330
458D6
100
AcDbEntity
  8
0
100
AcDbCircle
 10
925.8945710854247
 20
399.2226775282975
 30
3.646124999999996
 40
3.276411809380694
  0
LINE
  5
5B327
330
458D6
100
AcDbEntity
  8
0
100
AcDbLine
 10
922.6791416105163
 20
398.5934815043599
 30
3.646124999999996
 11
928.0471855635706
 21
401.6927231256767
 31
3.646124999999996
  0
LINE
  5
5B328
330
458D6
100
AcDbEntity
  8
0
100
AcDbLine
 10
923.5573441818509
 20
396.9265406103716
 30
3.646124999999996
 11
929.0516974387044
 21
400.0987069422384
 31
3.646124999999996
  0
CIRCLE
  5
5B329
330
458D6
100
AcDbEntity
  8
0
100
AcDbCircle
 10
939.4616095935376
 20
375.876268438596
 30
3.646124999999996
 40
3.276411809380694
  0
LINE
  5
5B32A
330
458D6
100
AcDbEntity
  8
0
100
AcDbLine
 10
936.2461801186295
 20
375.2470724146598
 30
3.646124999999996
 11
941.6142240716808
 21
378.3463140359766
 31
3.646124999999996
  0
LINE
  5
5B32B
330
458D6
100
AcDbEntity
  8
0
100
AcDbLine
 10
937.1243826899641
 20
373.5801315206715
 30
3.646124999999996
 11
942.6187359468146
 21
376.7522978525369
 31
3.646124999999996
  0
CIRCLE
  5
5B32C
330
458D6
100
AcDbEntity
  8
0
100
AcDbCircle
 10
912.4460925366911
 20
375.9447190630574
 30
3.646124999999996
 40
3.276411809380694
  0
LINE
  5
5B32D
330
458D6
100
AcDbEntity
  8
0
100
AcDbLine
 10
910.1088656331173
 20
373.6485821451314
 30
3.646124999999996
 11
915.6032188899677
 21
376.8207484769983
 31
3.646124999999996
  0
LINE
  5
5B32E
330
458D6
100
AcDbEntity
  8
0
100
AcDbLine
 10
909.2306630617798
 20
375.3155230391198
 30
3.646124999999996
 11
914.5987070148342
 21
378.4147646604366
 31
3.646124999999996
  0
LINE
  5
5B32F
330
458D6
100
AcDbEntity
  8
CENTER
100
AcDbLine
 10
905.7632515898621
 20
383.7092017733611
 30
3.646124999999996
 11
946.2578452652602
 21
383.7092017733611
 31
3.646124999999996
  0
LINE
  5
5B330
330
458D6
100
AcDbEntity
  8
0
100
AcDbLine
 10
925.2595710854251
 20
376.4103589605103
 30
3.646124999999996
 11
925.2595710854251
 21
378.0836851671941
 31
3.646124999999996
  0
LINE
  5
5B331
330
458D6
100
AcDbEntity
  8
0
100
AcDbLine
 10
926.5295710854269
 20
376.4103589605103
 30
3.646124999999996
 11
926.5295710854269
 21
378.0836851671941
 31
3.646124999999996
  0
ARC
  5
5B332
330
458D6
100
AcDbEntity
  8
0
100
AcDbCircle
 10
925.8945710854247
 20
384.7666469923309
 30
3.646124999999996
 40
8.380380341652864
100
AcDbArc
 50
265.6544066426908
 51
274.3455933573091
  0
LINE
  5
5B333
330
458D6
100
AcDbEntity
  8
0
100
AcDbLine
 10
925.5770710854264
 20
378.0568698796848
 30
3.646124999999996
 11
925.5770710854264
 21
378.919112618658
 31
3.646124999999996
  0
LINE
  5
5B334
330
458D6
100
AcDbEntity
  8
0
100
AcDbLine
 10
926.2120710854256
 20
378.0568698796848
 30
3.646124999999996
 11
926.2120710854256
 21
378.919112618658
 31
3.646124999999996
  0
LINE
  5
5B335
330
458D6
100
AcDbEntity
  8
0
100
AcDbLine
 10
920.242239191751
 20
384.0267017733608
 30
3.646124999999996
 11
921.1044819307229
 21
384.0267017733608
 31
3.646124999999996
  0
LINE
  5
5B336
330
458D6
100
AcDbEntity
  8
0
100
AcDbLine
 10
920.242239191751
 20
383.3917017733614
 30
3.646124999999996
 11
921.1044819307229
 21
383.3917017733614
 31
3.646124999999996
  0
LINE
  5
5B337
330
458D6
100
AcDbEntity
  8
0
100
AcDbLine
 10
926.2120710854256
 20
388.4992909280629
 30
3.646124999999996
 11
926.2120710854256
 21
389.361533667036
 31
3.646124999999996
  0
LINE
  5
5B338
330
458D6
100
AcDbEntity
  8
0
100
AcDbLine
 10
925.5770710854264
 20
388.4992909280629
 30
3.646124999999996
 11
925.5770710854264
 21
389.361533667036
 31
3.646124999999996
  0
LINE
  5
5B339
330
458D6
100
AcDbEntity
  8
0
100
AcDbLine
 10
930.6846602401291
 20
384.0267017733608
 30
3.646124999999996
 11
931.546902979101
 21
384.0267017733608
 31
3.646124999999996
  0
LINE
  5
5B33A
330
458D6
100
AcDbEntity
  8
0
100
AcDbLine
 10
930.6846602401291
 20
383.3917017733614
 30
3.646124999999996
 11
931.546902979101
 21
383.3917017733614
 31
3.646124999999996
  0
LINE
  5
5B33B
330
458D6
100
AcDbEntity
  8
0
100
AcDbLine
 10
928.3360222753211
 20
417.9121755634766
 30
3.646124999999996
 11
931.1431990800604
 21
433.8324663406597
 31
3.646124999999996
  0
LINE
  5
5B33C
330
458D6
100
AcDbEntity
  8
0
100
AcDbLine
 10
934.8425953728682
 20
416.8111195629899
 30
3.646124999999996
 11
937.7273301081837
 21
433.1712632218055
 31
3.646124999999996
  0
ARC
  5
5B33D
330
458D6
100
AcDbEntity
  8
0
100
AcDbCircle
 10
932.7922982415397
 20
433.7156936667587
 30
3.646124999999996
 40
1.658466663303524
100
AcDbArc
 50
176.1562194257537
 51
347.7815954565119
  0
ARC
  5
5B33E
330
458D6
100
AcDbEntity
  8
0
100
AcDbCircle
 10
936.0899276241818
 20
433.3878244328388
 30
3.646124999999996
 40
1.651661482489157
100
AcDbArc
 50
347.5341551635216
 51
173.0460831994926
  0
ARC
  5
5B33F
330
458D6
100
AcDbEntity
  8
0
100
AcDbCircle
 10
932.6007897952466
 20
432.3583851407417
 30
3.646124999999996
 40
2.073037886038394
100
AcDbArc
 50
28.78486161880455
 51
134.9711148053624
  0
LINE
  5
5B375
330
458D6
100
AcDbEntity
  8
0
100
AcDbLine
 10
926.8470710854252
 20
389.3347183795281
 30
3.646124999999996
 11
926.8470710854252
 21
394.2555720562523
 31
3.646124999999996
  0
LINE
  5
5B376
330
458D6
100
AcDbEntity
  8
0
100
AcDbLine
 10
924.9420710854268
 20
389.3347183795281
 30
3.646124999999996
 11
924.9420710854268
 21
394.2555720562523
 31
3.646124999999996
  0
DIMENSION
  5
5B37C
330
458D6
100
AcDbEntity
  8
AREA1
100
AcDbDimension
  2
*D9
 10
883.4770214037277
 20
351.8957017733612
 30
3.646124999999996
 11
880.248216314249
 21
342.3148904261066
 31
3.646124999999996
 70
   160
 71
     5
 42
3.301999999999964
  3
ABECAD_3D
100
AcDbAlignedDimension
 13
925.8945710854241
 23
355.1977017733611
 33
3.646124999999996
 14
925.8945710854247
 24
351.8957017733611
 34
3.646124999999996
 50
90.0
100
AcDbRotatedDimension
  0
DIMENSION
  5
5B398
330
458D6
100
AcDbEntity
  8
AREA1
100
AcDbDimension
  2
*D10
 10
962.8570669481833
 20
362.3688948370767
 30
3.646124999999996
 11
878.9285052583863
 21
395.7798937536812
 31
3.646124999999996
 70
   162
 71
     5
 42
0.5241862724732889
  3
ABECAD_3D
100
AcDb2LineAngularDimension
 13
905.7632515898621
 23
383.7092017733611
 33
3.646124999999996
 14
946.2578452652602
 24
383.7092017733611
 34
3.646124999999996
 15
908.3600736698475
 25
393.8754521502804
 35
3.646124999999996
 16
880.3376273002761
 26
400.3290395240445
 36
3.646124999999996
  0
DIMENSION
  5
5B3B8
330
458D6
100
AcDbEntity
  8
AREA1
100
AcDbDimension
  2
*D11
 10
946.3176429498245
 20
356.1646517566779
 30
3.646124999999996
 11
888.9955153755431
 21
433.4748732804405
 31
3.646124999999996
 70
   163
 71
     5
 42
68.58000000000038
  3
ABECAD_3D
100
AcDbDiametricDimension
 15
905.4714992210245
 25
411.2537517900443
 35
3.646124999999996
 40
0.0
  0
DIMENSION
  5
5B3CB
330
458D6
100
AcDbEntity
  8
AREA1
100
AcDbDimension
  2
*D12
 10
948.5304419953017
 20
363.7744643935668
 30
3.646124999999996
 11
883.5757890923638
 21
420.9780927571983
 31
3.646124999999996
 70
   163
 71
     5
 42
60.32499999999976
  3
ABECAD_3D
100
AcDbDiametricDimension
 15
903.2587001755471
 25
403.6439391531551
 35
3.646124999999996
 40
0.0
  0
LINE
  5
5B493
330
458D6
100
AcDbEntity
  8
SCALE
100
AcDbLine
 10
808.8356879524678
 20
368.6761490532337
 30
3.646124999999996
 11
834.2356879524679
 21
368.6761490532337
 31
3.646124999999996
  0
LINE
  5
5B494
330
458D6
100
AcDbEntity
  8
SCALE
100
AcDbLine
 10
834.2356879524679
 20
366.1361490532338
 30
3.646124999999996
 11
834.2356879524679
 21
371.2161490532339
 31
3.646124999999996
  0
LINE
  5
5B495
330
458D6
100
AcDbEntity
  8
SCALE
100
AcDbLine
 10
808.8356879524678
 20
366.1361490532338
 30
3.646124999999996
 11
808.8356879524678
 21
371.2161490532339
 31
3.646124999999996
  0
LINE
  5
5B496
330
458D6
100
AcDbEntity
  8
SCALE
100
AcDbLine
 10
808.8356879524681
 20
373.8625727905271
 30
3.646124999999996
 11
808.8356879524681
 21
378.942572790527
 31
3.646124999999996
  0
LINE
  5
5B497
330
458D6
100
AcDbEntity
  8
SCALE
100
AcDbLine
 10
818.8356679524682
 20
373.8625727905271
 30
3.646124999999996
 11
818.8356679524682
 21
378.942572790527
 31
3.646124999999996
  0
LINE
  5
5B498
330
458D6
100
AcDbEntity
  8
SCALE
100
AcDbLine
 10
808.8356879524681
 20
376.402572790527
 30
3.646124999999996
 11
818.8356679524682
 21
376.402572790527
 31
3.646124999999996
  0
TEXT
  5
5B499
330
458D6
100
AcDbEntity
  8
SCALE
100
AcDbText
 10
810.3450106932418
 20
377.5643597804896
 30
3.646124999999996
 40
1.587499999999999
  1
10 mm
100
AcDbText
  0
TEXT
  5
5B49A
330
458D6
100
AcDbEntity
  8
SCALE
100
AcDbText
 10
816.4335806855561
 20
370.4299859157131
 30
3.646124999999996
 40
1.587499999999999
  1
[1 Inch]
100
AcDbText
  0
TEXT
  5
5B49B
330
458D6
100
AcDbEntity
  8
SCALE
100
AcDbText
 10
808.6417720325973
 20
381.9361104053789
 30
3.646124999999996
 40
1.587499999999999
  1
SCALE:
100
AcDbText
  0
LWPOLYLINE
  5
5B49C
330
458D6
100
AcDbEntity
  8
SCALE
100
AcDbPolyline
 90
        4
 70
     1
 43
0.0
 38
3.646124999999996
 10
807.1297372239758
 20
384.6082208201162
 10
835.9747092403418
 20
384.6082208201162
 10
835.9747092403418
 20
363.2313378239546
 10
807.1297372239758
 20
363.2313378239546
  0
VIEWPORT
  5
48102
102
{ACAD_XDICTIONARY
360
5B4A3
102
}
330
458D3
100
AcDbEntity
 67
     1
  8
0
100
AcDbViewport
 10
151.36892712747
 20
113.2877645513726
 30
0.0
 40
366.2235181825348
 41
189.6790584679584
 68
     1
 69
     1
 12
151.36892712747
 22
113.2877645513726
 13
0.0
 23
0.0
 14
0.5
 24
0.5
 15
0.5
 25
0.5
 16
0.0
 26
0.0
 36
1.0
 17
0.0
 27
0.0
 37
0.0
 42
50.0
 43
0.0
 44
0.0
 45
189.6790584679584
 50
0.0
 51
0.0
 72
 20000
 90
    32800
  1

281
     0
 71
     1
 74
     0
110
0.0
120
0.0
130
0.0
111
1.0
121
0.0
131
0.0
112
0.0
122
1.0
132
0.0
 79
     0
146
0.0
  0
VIEWPORT
  5
48104
102
{ACAD_XDICTIONARY
360
5B4A5
102
}
330
458D3
100
AcDbEntity
 67
     1
  8
AREA1
100
AcDbViewport
 10
128.5204046558613
 20
96.93359731921567
 30
0.0
 40
205.266468072606
 41
154.8671946384313
 68
     2
 69
     2
 12
694.9489646775695
 22
403.8112185436674
 13
0.0
 23
0.0
 14
0.25
 24
0.25
 15
0.25
 25
0.25
 16
0.0
 26
0.0
 36
1.0
 17
272.824838996967
 27
8.306349224220612
 37
23.31369335295995
 42
50.0
 43
0.0
 44
0.0
 45
271.5096617482365
 50
0.0
 51
0.0
 72
 20000
 90
    32800
  1

281
     0
 71
     1
 74
     0
110
266.8673580196576
120
8.203180508612135
130
3.646124999999996
111
1.0
121
0.0
131
0.0
112
0.0
122
1.0
132
0.0
 79
     1
146
0.0
  0
TEXT
  5
4810E
330
458D3
100
AcDbEntity
 67
     1
  8
0
100
AcDbText
 10
133.2323326534653
 20
186.9455936734827
 30
0.0
 40
5.113019999999999
  1
844A-*
100
AcDbText
  0
TEXT
  5
4810F
330
458D3
100
AcDbEntity
 67
     1
  8
0
100
AcDbText
 10
133.2323326534653
 20
178.4238936734827
 30
0.0
 40
5.113
  1
Hollow Shaft
100
AcDbText
  0
ENDSEC
  0
SECTION
  2
OBJECTS
  0
DICTIONARY
  5
458CB
330
0
100
AcDbDictionary
281
     1
  3
ACAD_COLOR
350
459D8
  3
ACAD_GROUP
350
458CC
  3
ACAD_LAYOUT
350
458FB
  3
ACAD_MATERIAL
350
459D7
  3
ACAD_MLINESTYLE
350
458D9
  3
ACAD_PLOTSETTINGS
350
458FC
  3
ACAD_PLOTSTYLENAME
350
458F9
  3
ACAD_TABLESTYLE
350
46C32
  3
ACDBVARIABLEDICTIONARY
350
458E1
  3
DWGPROPS
350
5B49E
  0
DICTIONARY
  5
480DB
330
458C1
100
AcDbDictionary
280
     1
281
     1
  3
ACAD_LAYERFILTERS
360
5B438
  3
ACAD_LAYERSTATES
360
48105
  3
ACLYDICTIONARY
360
5B437
  0
DICTIONARY
  5
45930
330
458D6
100
AcDbDictionary
280
     1
281
     1
  3
ACAD_LAYOUTSELFREF
360
459C8
  0
DICTIONARY
  5
4592E
330
458D3
100
AcDbDictionary
280
     1
281
     1
  3
ACAD_LAYOUTSELFREF
360
459C7
  0
DICTIONARY
  5
5B4A3
330
48102
100
AcDbDictionary
280
     1
281
     1
  3
ACAD_XREC_ROUNDTRIP
360
5B4A4
  0
DICTIONARY
  5
5B4A5
330
48104
100
AcDbDictionary
280
     1
281
     1
  3
ACAD_XREC_ROUNDTRIP
360
5B4A6
  0
DICTIONARY
  5
459D8
102
{ACAD_REACTORS
330
458CB
102
}
330
458CB
100
AcDbDictionary
281
     1
  0
DICTIONARY
  5
458CC
102
{ACAD_REACTORS
330
458CB
102
}
330
458CB
100
AcDbDictionary
281
     1
  0
DICTIONARY
  5
458FB
102
{ACAD_REACTORS
330
458CB
102
}
330
458CB
100
AcDbDictionary
281
     1
  3
Layout1
350
458FE
  3
Model
350
458FD
  0
DICTIONARY
  5
459D7
102
{ACAD_REACTORS
330
458CB
102
}
330
458CB
100
AcDbDictionary
281
     1
  0
DICTIONARY
  5
458D9
102
{ACAD_REACTORS
330
458CB
102
}
330
458CB
100
AcDbDictionary
281
     1
  3
STANDARD
350
458DA
  0
DICTIONARY
  5
458FC
102
{ACAD_REACTORS
330
458CB
102
}
330
458CB
100
AcDbDictionary
281
     1
  0
ACDBDICTIONARYWDFLT
  5
458F9
102
{ACAD_REACTORS
330
458CB
102
}
330
458CB
100
AcDbDictionary
281
     1
  3
Normal
350
458FA
100
AcDbDictionaryWithDefault
340
458FA
  0
DICTIONARY
  5
46C32
102
{ACAD_REACTORS
330
458CB
102
}
330
458CB
100
AcDbDictionary
281
     1
  3
Standard
350
46C33
  0
DICTIONARY
  5
458E1
102
{ACAD_REACTORS
330
458CB
102
}
330
458CB
100
AcDbDictionary
281
     1
  3
CTABLESTYLE
350
46C39
  3
DIMADEC
350
458E2
  3
DIMASSOC
350
46C46
  3
PROJECTNAME
350
46C47
  0
XRECORD
  5
5B49E
102
{ACAD_REACTORS
330
458CB
102
}
330
458CB
100
AcDbXrecord
280
     1
  1
DWGPROPS COOKIE
  2

  3

  4

  6

  7

  8
TModica
  9

300
=
301
=
302
=
303
=
304
=
305
=
306
=
307
=
308
=
309
=
 40
0.3126005324074074
 41
2453042.595653843
 42
2453597.69433184
  1

 90
        0
  0
DICTIONARY
  5
5B438
102
{ACAD_REACTORS
330
480DB
102
}
330
480DB
100
AcDbDictionary
281
     1
  0
DICTIONARY
  5
48105
102
{ACAD_REACTORS
330
480DB
102
}
330
480DB
100
AcDbDictionary
281
     1
  0
DICTIONARY
  5
5B437
102
{ACAD_REACTORS
330
480DB
102
}
330
480DB
100
AcDbDictionary
281
     1
1001
ACAD
1000
<All
  0
XRECORD
  5
459C8
102
{ACAD_REACTORS
330
45930
102
}
330
45930
100
AcDbXrecord
280
     1
340
458D6
  0
XRECORD
  5
459C7
102
{ACAD_REACTORS
330
4592E
102
}
330
4592E
100
AcDbXrecord
280
     1
340
458D3
  0
XRECORD
  5
5B4A4
102
{ACAD_REACTORS
330
5B4A3
102
}
330
5B4A3
100
AcDbXrecord
280
     1
102
SHADEPLOT
 70
     0
  0
XRECORD
  5
5B4A6
102
{ACAD_REACTORS
330
5B4A5
102
}
330
5B4A5
100
AcDbXrecord
280
     1
102
SHADEPLOT
 70
     0
  0
LAYOUT
  5
458FE
102
{ACAD_XDICTIONARY
360
48133
102
}
102
{ACAD_REACTORS
330
458FB
102
}
330
458FB
100
AcDbPlotSettings
  1

  2
\\usmkevprnt001\USMKEPD0487
  4
Letter
  6

 40
7.143749713897705
 41
5.027085304260253
 42
7.14373779296875
 43
5.027069091796875
 44
215.8999938964843
 45
279.3999938964843
 46
-0.0000000000000113
 47
14.56436523858406
 48
0.0
 49
0.0
140
0.0
141
0.0
142
1.0
143
21.73966717538989
 70
   692
 72
     0
 73
     1
 74
     1
  7
acad.ctb
 75
     0
147
0.0459988642849159
148
-652.7799999999996
149
-495.2999999999999
100
AcDbLayout
  1
Layout1
 70
     1
 71
     1
 10
8.931840085394117
 20
13.38571885179438
 11
248.0681737907302
 21
198.1728846186557
 12
0.0
 22
0.0
 32
0.0
 14
25.88717061955833
 24
19.5
 34
0.0
 15
231.1536386921643
 25
192.0586136734827
 35
0.0
146
0.0
 13
0.0
 23
0.0
 33
0.0
 16
1.0
 26
0.0
 36
0.0
 17
0.0
 27
1.0
 37
0.0
 76
     0
330
458D3
331
48102
1001
ACAD_PSEXT
1000
\\usmkevprnt001\USMKEPD0487
1000
RICOH Aficio 2035 PCL 5e
1000
MKE - 7H29
1000
IKON ID: N/A FAX: N/A UNIX: N/A MAINFRAME: R5074
1070
     0
  0
LAYOUT
  5
458FD
102
{ACAD_XDICTIONARY
360
5B4A0
102
}
102
{ACAD_REACTORS
330
458FB
102
}
330
458FB
100
AcDbPlotSettings
  1

  2
\\usmkevprnt001\USMKEPD0487
  4
Letter
  6

 40
7.143749713897705
 41
5.027085304260253
 42
7.14373779296875
 43
5.027069091796875
 44
215.8999938964843
 45
279.3999938964843
 46
69.08278724492785
 47
0.0
 48
0.0
 49
0.0
140
0.0
141
0.0
142
1.0
143
46.08643047371788
 70
 11956
 72
     0
 73
     1
 74
     1
  7
acad.ctb
 75
     0
147
0.0216983608780524
148
12526.7129110102
149
-10456.17513608382
100
AcDbLayout
  1
Model
 70
     1
 71
     0
 10
0.0
 20
0.0
 11
12.0
 21
9.0
 12
0.0
 22
0.0
 32
0.0
 14
0.0
 24
0.0
 34
0.0
 15
0.0
 25
0.0
 35
0.0
146
0.0
 13
0.0
 23
0.0
 33
0.0
 16
1.0
 26
0.0
 36
0.0
 17
0.0
 27
1.0
 37
0.0
 76
     0
330
458D6
1001
ACAD_PSEXT
1000
\\usmkevprnt001\USMKEPD0487
1000
RICOH Aficio 2035 PCL 5e
1000
MKE - 7H29
1000
IKON ID: N/A FAX: N/A UNIX: N/A MAINFRAME: R5074
1070
     0
  0
MLINESTYLE
  5
458DA
102
{ACAD_REACTORS
330
458D9
102
}
330
458D9
100
AcDbMlineStyle
  2
STANDARD
 70
     0
  3

 62
   256
 51
90.0
 52
90.0
 71
     2
 49
0.5
 62
   256
  6
BYLAYER
 49
-0.5
 62
   256
  6
BYLAYER
  0
ACDBPLACEHOLDER
  5
458FA
102
{ACAD_REACTORS
330
458F9
102
}
330
458F9
  0
ACAD_PROXY_OBJECT
  5
46C33
102
{ACAD_REACTORS
330
46C32
102
}
330
46C32
100
AcDbProxyObject
 90
      499
 91
      512
 95
   393239
 70
     0
 93
     1841
310
4214DD185B99185C9928000000000000F83F0000000000003E0FC00000000000004901028000000C1008070000C3001FDFF8000000C1003FBFF000000182007F7FE00000030400FEFFC00000060801FDFF8000000C1003FBFF000000182000000000000000C2020B0000001820100E000186003FBFF000000182007F7FE000
310
00030400FEFFC00000060801FDFF8000000C1003FBFF000000182007F7FE0000003040000000000000012404160000003040201C00030C007F7FE00000030400FEFFC00000060801FDFF8000000C1003FBFF000000182007F7FE00000030400FEFFC00000060801A
340
458CE
340
458CE
340
458CE
 94
        0
  0
DICTIONARYVAR
  5
46C39
102
{ACAD_REACTORS
330
458E1
102
}
330
458E1
100
DictionaryVariables
280
     0
  1
STANDARD
  0
DICTIONARYVAR
  5
458E2
102
{ACAD_REACTORS
330
458E1
102
}
330
458E1
100
DictionaryVariables
280
     0
  1
0
  0
DICTIONARYVAR
  5
46C46
102
{ACAD_REACTORS
330
458E1
102
}
330
458E1
100
DictionaryVariables
280
     0
  1
1
  0
DICTIONARYVAR
  5
46C47
102
{ACAD_REACTORS
330
458E1
102
}
330
458E1
100
DictionaryVariables
280
     0
  1

  0
DICTIONARY
  5
48133
330
458FE
100
AcDbDictionary
280
     1
281
     1
  3
ACAD_XREC_ROUNDTRIP
360
5B4A2
  3
ADSK_XREC_LAYOUTTHUMBNAIL
360
48134
  0
DICTIONARY
  5
5B4A0
330
458FD
100
AcDbDictionary
280
     1
281
     1
  3
ACAD_XREC_ROUNDTRIP
360
5B4A1
  0
XRECORD
  5
5B4A2
102
{ACAD_REACTORS
330
48133
102
}
330
48133
100
AcDbXrecord
280
     1
102
SHADEPLOT
 70
     0
102
SHADEPLOTRESLEVEL
 70
     2
102
SHADEPLOTCUSTOMDPI
 70
   300
  0
XRECORD
  5
48134
102
{ACAD_REACTORS
330
48133
102
}
330
48133
100
AcDbXrecord
280
     1
310
28000000B40000008B0000000100080000000000BC61000000000000000000000001000000000000FFFFFF0000000000FFFFFF000000000000000000000000000000000000000000000000000000000000000000330000006600000099000000CC000000FF00000000330000333300006633000099330000CC330000FF3300
310
0000660000336600006666000099660000CC660000FF66000000990000339900006699000099990000CC990000FF99000000CC000033CC000066CC000099CC0000CCCC0000FFCC000000FF000033FF000066FF000099FF0000CCFF0000FFFF000000003300330033006600330099003300CC003300FF003300003333003333
310
33006633330099333300CC333300FF33330000663300336633006666330099663300CC663300FF66330000993300339933006699330099993300CC993300FF99330000CC330033CC330066CC330099CC3300CCCC3300FFCC330000FF330033FF330066FF330099FF3300CCFF3300FFFF330000006600330066006600660099
310
006600CC006600FF00660000336600333366006633660099336600CC336600FF33660000666600336666006666660099666600CC666600FF66660000996600339966006699660099996600CC996600FF99660000CC660033CC660066CC660099CC6600CCCC6600FFCC660000FF660033FF660066FF660099FF6600CCFF6600
310
FFFF660000009900330099006600990099009900CC009900FF00990000339900333399006633990099339900CC339900FF33990000669900336699006666990099669900CC669900FF66990000999900339999006699990099999900CC999900FF99990000CC990033CC990066CC990099CC9900CCCC9900FFCC990000FF99
310
0033FF990066FF990099FF9900CCFF9900FFFF99000000CC003300CC006600CC009900CC00CC00CC00FF00CC000033CC003333CC006633CC009933CC00CC33CC00FF33CC000066CC003366CC006666CC009966CC00CC66CC00FF66CC000099CC003399CC006699CC009999CC00CC99CC00FF99CC0000CCCC0033CCCC0066CC
310
CC0099CCCC00CCCCCC00FFCCCC0000FFCC0033FFCC0066FFCC0099FFCC00CCFFCC00FFFFCC000000FF003300FF006600FF009900FF00CC00FF00FF00FF000033FF003333FF006633FF009933FF00CC33FF00FF33FF000066FF003366FF006666FF009966FF00CC66FF00FF66FF000099FF003399FF006699FF009999FF00CC
310
99FF00FF99FF0000CCFF0033CCFF0066CCFF0099CCFF00CCCCFF00FFCCFF0000FFFF0033FFFF0066FFFF0099FFFF00CCFFFF00FFFFFF00000000000D0D0D001A1A1A00282828003535350043434300505050005D5D5D006B6B6B00787878008686860093939300A1A1A100AEAEAE00BBBBBB00C9C9C900D6D6D600E4E4E400
310
F1F1F100FFFFFF0000000000000000000000000000000000000000000000000000000000000000000000000000000000E2E2E2E2E2E2E2E2E2E2E2E2E2E2E2E2E2E2E2E2E2E2E2E2E2E2E2E2E2E2E2E2E2E2E2E2E2E2E2E2E2E2E2E2E2E2E2E2E2E2E2E2E2E2E2E2E2E2E2E2E2E2E2E2E2E2E2E2E2E2E2E2E2E2E2E2E2E2E2
310
E2E2E2E2E2E2E2E2E2E2E2E2E2E2E2E2E2E2E2E2E2E2E2E2E2E2E2E2E2E2E2E2E2E2E2E2E2E2E2E2E2E2E2E2E2E2E2E2E2E2E2E2E2E2E2E2E2E2E2E2E2E2E2E2E2E2E2E2E2E2E2E2E2E2E2E2E2E2E2E2E2E2E2E2E2E2E2E2E2E2E2E2E2E2E2E2E2E2E2E2E2E2F5F5F5F5F5F5F5F5F5F5F5F5F5F5F5F5F5F5F5F5F5F5F5F5F5
310
F5F5F5F5F5F5F5F5F5F5F5F5F5F5F5F5F5F5F5F5F5F5F5F5F5F5F5F5F5F5F5F5F5F5F5F5F5F5F5F5F5F5F5F5F5F5F5F5F5F5F5F5F5F5F5F5F5F5F5F5F5F5F5F5F5F5F5F5F5F5F5F5F5F5F5F5F5F5F5F5F5F5F5F5F5F5F5F5F5F5F5F5F5F5F5F5F5F5F5F5F5F5F5F5F5F5F5F5F5F5F5F5F5F5F5F5F5F5F5F5F5F5F5F5F5F5F5
310
F5F5F5F5F5F5F5F5F5F5F5F5F5F5F5F5F5F5F5F5F5F5F5F5E2E2E2E2F5F5F5F5F5F5F5F5F5F5F5F5F5F5F5F5F5F5F5F5F5F5F5F5F5F5F5F5F5F5F5F5F5F5F5F5F5F5F5F5F5F5F5F5F5F5F5F5F5F5F5F5F5F5F5F5F5F5F5F5F5F5F5F5F5F5F5F5F5F5F5F5F5F5F5F5F5F5F5F5F5F5F5F5F5F5F5F5F5F5F5F5F5F5F5F5F5F5F5
310
F5F5F5F5F5F5F5F5F5F5F5F5F5F5F5F5F5F5F5F5F5F5F5F5F5F5F5F5F5F5F5F5F5F5F5F5F5F5F5F5F5F5F5F5F5F5F5F5F5F5F5F5F5F5F5F5F5F5F5F5F5F5F5F5F5F5F5F5F5F5F5F5F5F5F5F5F5E2E2E2E2F5F5F5F5F5F5F5F5F5F5F5F5F5F5F5F5F5F5F5F5F5F5F5F5F5F5F5F5F5F5F5F5F5F5F5F5F5F5F5F5F5F5F5F5F5F5
310
F5F5F5F5F5F5F5F5F5F5F5F5F5F5F5F5F5F5F5F5F5F5F5F5F5F5F5F5F5F5F5F5F5F5F5F5F5F5F5F5F5F5F5F5F5F5F5F5F5F5F5F5F5F5F5F5F5F5F5F5F5F5F5F5F5F5F5F5F5F5F5F5F5F5F5F5F5F5F5F5F5F5F5F5F5F5F5F5F5F5F5F5F5F5F5F5F5F5F5F5F5F5F5F5F5F5F5F5F5F5F5F5F5F5F5F5F5F5F5F5F5F5F5F5F5F5F5
310
F5F5F5E2E2E2E2F5F5F5F5F5F5F5F5F5F5F5F5F5F5F5F5F5F5F5F5F5F5F5F5F5F5F5F5F5F5F5F5F5F5F5F5F5F5F5F5F5F5F5F5F5F5F5F5F5F5F5F5F5F5F5F5F5F5F5F5F5F5F5F5F5F5F5F5F5F5F5F5F5F5F5F5F5F5F5F5F5F5F5F5F5F5F5F5F5F5F5F5F5F5F5F5F5F5F5F5F5F5F5F5F5F5F5F5F5F5F5F5F5F5F5F5F5F5F5F5
310
F5F5F5F5F5F5F5F5F5F5F5F5F5F5F5F5F5F5F5F5F5F5F5F5F5F5F5F5F5F5F5F5F5F5F5F5F5F5F5F5F5F5F5F5F5F5F5F5F5F5F5F5F5F5F5F5E2E2E2E2F5F5E2E2E2E2E2E2E2E2F5E2E2E2E2E2E2E2E2E2E2E2E2E2E2E2E2E2E2E2E2E2E2E2E2E2E2E2E2E2E2E2E2E2E2E2E2E2E2E2E2E2E2E2E2E2E2E2E2E2E2E2E2E2E2E2E2
310
E2E2E2E2E2E2E2E2E2E2E2E2E2E2E2E2E2E2E2E2E2E2E2E2E2E2E2E2E2E2E2E2E2E2E2E2E2E2E2E2E2E2E2E2E2E2E2E2E2E2E2E2E2E2E2E2E2E2E2E2E2E2E2E2E2E2E2E2E2E2E2E2E2E2E2E2E2E2E2E2E2E2E2E2E2E2E2E2E2E2E2E2E2E2E2E2E2E2F5E2E2E2E2E2E2E2E2F5F5E2E2E2E2F5F5E2F5F5F5F5F5F5F5F5E2F5F5
310
F5F5F5F5F5F5F5F5F5F5F5F5F5F5F5F5F5F5F5F5F5F5F5F5F5F5F5F5F5F5F5F5F5F5F5F5F5F5F5F5F5F5F5F5F5F5F5F5F5F5F5F5F5F5F5F5F5F5F5F5F5F5F5F5F5F5F5F5F5F5F5F5F5F5F5F5F5F5F5F5F5F5F5F5F5F5F5F5F5F5F5F5F5F5F5F5F5F5F5F5F5F5F5F5F5F5F5F5F5F5F5F5F5F5F5F5F5F5F5F5F5F5F5F5F5F5F5
310
F5F5F5F5F5F5F5F5F5F5F5F5F5F5F5F5F5F5F5F5F5F5F5E2F5F5F5F5F5F5F5F5E2F5F5E2E2E2E2F5F5E2F5F5F5F5F5F5F5F5E2F5F5F5F5F5F5F5F5F5F5F5F5F5F5F5F5F5F5F5F5F5F5F5F5F5F5F5F5F5F5F5F5F5F5F5F5F5F5F5F5F5F5F5F5F5F5F5F5F5F5F5F5F5F5F5F5F5F5F5F5F5F5F5F5F5F5F5F5F5F5F5F5F5F5F5F5
310
F5F5F5F5F5F5F5F5F5F5F5F5F5F5F5F5F5F5F5F5F5F5F5F5F5F5F5F5F5F5F5F5F5F5F5F5F5F5F5F5F5F5F5F5F5F5F5F5F5F5F5F5F5F5F5F5F5F5F5F5F5F5F5F5F5F5F5F5F5F5F5F5F5F5F5F5E2F5F5F5F5F5F5F5F5E2F5F5E2E2E2E2F5F5E2F5F5F5F5F5F5F5F5E2F5F5F5F5F5F5F5F5F5F5F5F5F5F5F5F5F5F5F5F5F5F5F5
310
F5F5F5F5F5F5F5F5F5F5F5F5F5F5F5F5F5F5F5F5F5F5F5F5F5F5F5F5F5F5F5F5F5F5F5F5F5F5F5F5F5F5F5F5F5F5F5F5F5F5F5F5F5F5F5F5F5F5F5F5F5F5F5F5F5F5F5F5F5F5F5F5F5F5F5F5F5F5F5F5F5F5F5F5F5F5F5F5F5F5F5F5F5F5F5F5F5F5F5F5F5F5F5F5F5F5F5F5F5F5F5F5F5F5F5F5F5F5F5F5F5F5F5F5F5F5F5
310
F5F5E2F5F5F5F5F5F5F5F5E2F5F5E2E2E2E2F5F5E2F5F5F5F5F5F5F5F5E2F5F5F5F5F5F5F5F5F5F5F5F5F5F5F5F5F5F5F5F5F5F5F5F5F5F5F5F5F5F5F5F5F5F5F5F5F5F5F5F5F5F5F5F5F5F5F5F5F5F5F5F5F5F5F5F5F5F5F5F5F5F5F5F5F5F5F5F5F5F5F5F5F5F5F5F5F5F5F5F5F5F5F5F5F5F5F5F5F5F5F5F5F5F5F5F5F5
310
F5F5F5F5F5F5F5F5F5F5F5F5F5F5F5F5F5F5F5F5F5F5F5F5F5F5F5F5F5F5F5F5F5F5F5F5F5F5F5F5F5F5F5F5F5F5F5F5F5F5F5F5F5F5F5E2F5F5F5F5F5F5F5F5E2F5F5E2E2E2E2F5F5E2F5F5F5F5F5F5F5F5E2F5F5F5F5F5F5F5F5F5F5F5F5F5F5F5F5F5F5F5F5F5F5F5F5F5F5F5F5F5F5F5F5F5F5F5F5F5F5F5F5F5F5F5F5
310
F5F5F5F5F5F5F5F5F5F5F5F5F5F5F5F5F5F5F5F5F5F5F5F5F5F5F5F5F5F5F5F5F5F5F5F5F5F5F5F5F5F5F5F5F5F5F5F5F5F5F5F5F5F5F5F5F5F5F5F5F5F5F5F5F5F5F5F5F5F5F5F5F5F5F5F5F5F5F5F5F5F5F5F5F5F5F5F5F5F5F5F5F5F5F5F5F5F5F5F5F5F5F5F5F5F5F5F5E2F5F5F5F5F5F5F5F5E2F5F5E2E2E2E2F5F5E2
310
F5F5F5F5F5F5F5F5E2F5F5F5F5F5F5F5F5F5F5F5F5F5F5F5F5F5F5F5F5F5F5F5F5F5F5F5F5F5F5F5F5F5F5F5F5F5F5F5F5F5F5F5F5F5F5F5F5F5F5F5F5F5F5F5F5F5F5F5F5F5F5F5F5F5F5F5F5F5F5F5F5F5F5F5F5F5F5F5F5F5F5F5F5F5F5F5F5F5F5F5F5F5F5F5F5F5F5F5F5F5F5F5F5F5F5F5F5F5F5F5F5F5F5F5F5F5F5
310
F5F5F5F5F5F5F5F5F5F5F5F5F5F5F5F5F5F5F5F5F5F5F5F5F5F5F5F5F5F5F5F5F5F5E2F5F5F5F5F5F5F5F5E2F5F5E2E2E2E2F5F5E2F5F5F5F5F5F5F5F5E2F5F5F5F5F5F5F5F5F5F5F5F5F5F5F5F5F5F5F5F5F5F5F5F5F5F5F5F5F5F5F5F5F5F5F5F5F5F5F5F5F5F5F5F5F5F5F5F5F5F5F5F5F5F5F5F5F5F5F5F5F5F5F5F5F5
310
F5F5F5F5F5F5F5F5F5F5F5F5F5F5F5F5F5F5F5F5F5F5F5F5F5F5F5F5F5F5F5F5F5F5F5F5F5F5F5F5F5F5F5F5F5F5F5F5F5F5F5F5F5F5F5F5F5F5F5F5F5F5F5F5F5F5F5F5F5F5F5F5F5F5F5F5F5F5F5F5F5F5F5F5F5F5F5E2F5F5F5F5F5F5F5F5E2F5F5E2E2E2E2F5F5E2F5F5F5F5F5F5F5F5E2F5F5F5F5F5F5F5F5F5F5F5F5
310
F5F5F5F5F5F5F5F5F5F5F5F5F5F5F5F5F5F5F5F5F5F5F5F5F5F5F5F5F5F5F5F5F5F5F5F5F5F5F5F5F5F5F5F5F5F5F5F5F5F5F5F5F5F5F5F5F5F5F5F5F5F5F5F5F5F5F5F5F5F5F5F5F5F5F5F5F5F5F5F5F5F5F5F5F5F5F5F5F5F5F5F5F5F5F5F5F5F5F5F5F5F5F5F5F5F5F5F5F5F5F5F5F5F5F5F5F5F5F5F5F5F5F5F5F5F5F5
310
F5F5F5F5F5F5F5F5F5F5F5F5F5E2F5F5F5F5F5F5F5F5E2F5F5E2E2E2E2F5F5F5F5F5F5F5F5F5F5F5E2F5F5F5F5F5F5F5F5F5F5F5F5F5F5F5F5F5F5F5F5F5F5F5F5F5F5F5F5F5F5F5F5F5F5F5F5F5F5F5F5F5F5F5F5F5F5F5F5F5F5F5F5F5F5F5F5F5F5F5F5F5F5F5F5F5F5F5F5F5F5F5F5F5F5F5F5F5F5F5F5F5F5F5F5F5F5
310
F5F5F5F5F5F5F5F5F5F5F5F5F5F5F5F5F5F5F5F5F5F5F5F5F5F5F5F5F5F5F5F5F5F5F5F5F5F5F5F5F5F5F5F5F5F5F5F5F5F5F5F5F5F5F5F5F5F5F5F5F5F5F5F5F5F5E2F5F5F5F5F5F5F5F5F5F5F5E2E2E2E2F5F5F5F5F5F5F5F5F5F5F5E2F5F5F5F5F5F5F5F5F5F5F5F5F5F5F5F5F5F5F5F5F5F5F5F5F5F5F5F5F5F5F5F5F5
310
F5F5F5F5F5F5F5F5F5F5F5F5F5F5F5F5F5F5F5F5F5F5F5F5F5F5F5F5F5F5F5F5F5F5F5F5F5F5F5F5F5F5F5F5F5F5F5F5F5F5F5F5F5F5F5F5F5F5F5F5F5F5F5F5F5F5F5F5F5F5F5F5F5F5F5F5F5F5F5F5F5F5F5F5F5F5F5F5F5F5F5F5F5F5F5F5F5F5F5F5F5F5F5F5F5F5F5F5F5F5F5F5F5F5F5F5F5F5F5E2F5F5F5F5F5F5F5
310
F5F5F5F5E2E2E2E2F5F5F5F5F5F5F5F5F5F5F5E2F5F5F5F5F5F5F5F5F5F5F5F5F5F5F5F5F5F5F5F5F5F5F5F5F5F5F5F5F5F5F5F5F5F5F5F5F5F5F5F5F5F5F5F5F5F5F5F5F5F5F5F5F5F5F5F5F5F5F5F5F5F5F5F5F5F5F5F5F5F5F5F5F5F5F5F5F5F5F5F5F5F5F5F5F5F5F5F5F5F5F5F5F5F5F5F5F5F5F5F5F5F5F5F5F5F5F5
310
F5F5F5F5F5F5F5F5F5F5F5F5F5F5F5F5F5F5F5F5F5F5F5F5F5F5F5F5F5F5F5F5F5F5F5F5F5F5F5F5F5F5F5F5F5E2F5F5F5F5F5F5F5F5F5F5F5E2E2E2E2F5F5F5F5F5F5F5F5F5F5F5E2F5F5F5F5F5F5F5F5F5F5F5F5F5F5F5F5F5F5F5F5F5F5F5F5F5F5F5F5F5F5F5F5F5F5F5F5F5F5F5F5F5F5F5F5F5F5F5F5F5F5F5F5F5F5
310
F5F5F5F5F5F5F5F5F5F5F5F5F5F5F5F5F5F5F5F5F5F5F5F5F5F5F5F5F5F5F5F5F5F5F5F5F5F5F5F5F5F5F5F5F5F5F5F5F5F5F5F5F5F5F5F5F5F5F5F5F5F5F5F5F5F5F5F5F5F5F5F5F5F5F5F5F5F5F5F5F5F5F5F5F5F5F5F5F5F5F5F5F5F5F5F5F5F5E2F5F5F5F5F5F5F5F5F5F5F5E2E2E2E2F5F5F5F5F5F5F5F5F5F5F5E2F5
310
F5F5F5F5F5F5F5F5F5F5F5F5F5F5F5F5F5F5F5F5F5F5F5F5F5F5F5F5F5F5F5F5F5F5F5F5F5F5F5F5F5F5F5F5F5F5F5F5F5F5F5F5F5F5F5F5F5F5F5F5F5F5F5F5F5F5F5F5F5F5F5F5F5F5F5F5F5F5F5F5F5F5F5F5F5F5F5F5F5F5F5F5F5F5F5F5F5F5F5F5F5F5F5F5F5F5F5F5F5F5F5F5F5F5F5F5F5F5F5F5F5F5F5F5F5F5F5
310
F5F5F5F5F5F5F5F5F5F5F5F5F5F5F5F5F5F5F5F5F5F5F5F5E2F5F5F5F5F5F5F5F5F5F5F5E2E2E2E2F5F5F5F5F5F5F5F5F5F5F5E2F5F5F5F5F5F5F5F5F5F5F5F5F5F5F5F5F5F5F5F5F5F5F5F5F5F5F5F5F5F5F5F5F5F5F5F5F5F5F5F5F5F5F5F5F5F5F5F5F5F5F5F5F5F5F5F5F5F5F5F5F5F5F5F5F5F5F5F5F5F5F5F5F5F5F5
310
F5F5F5F5F5F5F5F5F5F5F5F5F5F5F5F5F5F5F5F5F5F5F5F5F5F5F5F5F5F5F5F5F5F5F5F5F5F5F5F5F5F5F5F5F5F5F5F5F5F5F5F5F5F5F5F5F5F5F5F5F5F5F5F5F5F5F5F5F5F5F5F5F5F5F5F5F5E2F5F5F5F5F5F5F5F5F5F5F5E2E2E2E2F5F5F5F5F5F5F5F5F5F5F5E2F5F5F5F5F5F5F5F5F5F5F5F5F5F5F5F5F5F5F5F5F5F5
310
F5F5F5F5F5F5F5F5F5F5F5F5F5F5F5F5F5F5F5F5F5F5F5F5F5F5F5F5F5F5F5F5F5F5F5F5F5F5F5F5F5F5F5F5F5F5F5F5F5F5F5F5F5F5F5F5F5F5F5F5F5F5F5F5F5F5F5F5F5F5F5F5F5F5F5F5F5F5F5F5F5F5F5F5F5F5F5F5F5F5F5F5F5F5F5F5F5F5F5F5F5F5F5F5F5F5F5F5F5F5F5F5F5F5F5F5F5F5F5F5F5F5F5F5F5F5F5
310
F5F5F5E2F5F5F5F5F5F5F5F5F5F5F5E2E2E2E2F5F5F5F5F5F5F5F5F5F5F5E2F5F5F5F5F5F5F5F5F5F5F5F5F5F5F5F5F5F5F5F5F5F5F5F5F5F5F5F5F5F5F5F5F5F5F5F5F5F5F5F5F5F5F5F5F5F5F5F5F5F5F5F5F5F5F5F5F5F5F5F5F5F5F5F5F5F5F5F5F5F5F5F5F5F5F5F5F5F5F5F5F5F5F5F5F5F5F5F5F5F5F5F5F5F5F5F5
310
F5F5F5F5F5F5F5F5F5F5F5F5F5F5F5F5F5F5F5F5F5F5F5F5F5F5F5F5F5F5F5F5F5F5F5F5F5F5F5F5F5F5F5F5F5F5F5F5F5F5F5F5F5F5F5F5E2F5F5F5F5F5F5F5F5F5F5F5E2E2E2E2F5F5F5F5F5F5F5F5F5F5F5E2F5F5F5F5F5F5F5F5F5F5F5F5F5F5F5F5F5F5F5F5F5F5F5F5F5F5F5F5F5F5F5F5F5F5F5F5F5F5F5F5F5F5F5
310
F5F5F5F5F5F5F5F5F5F5F5F5F5F5F5F5F5F5F5F5F5F5F5F5F5F5F5F5F5F5F5F5F5F5F5F5F5F5F5F5F5F5F5F5F5F5F5F5F5F5F5F5F5F5F5F5F5F5F5F5F5F5F5F5F5F5F5F5F5F5F5F5F5F5F5F5F5F5F5F5F5F5F5F5F5F5F5F5F5F5F5F5F5F5F5F5F5F5F5F5F5F5F5F5F5F5F5F5F5E2F5F5F5F5F5F5F5F5F5F5F5E2E2E2E2F5F5
310
E2F5F5F5F5F5F5F5F5E2F5F5F5F5F5F5F5F5F5F5F5F5F5F5F5F5F5F5F5F5F5F5F5F5F5F5F5F5F5F5F5F5F5F5F5F5F5F5F5F5F5F5F5F5F5F5F5F5F5F5F5F5F5F5F5F5F5F5F5F5F5F5F5F5F5F5F5F5F5F5F5F5F5F5F5F5F5F5F5F5F5F5F5F5F5F5F5F5F5F5F5F5F5F5F5F5F5F5F5F5F5F5F5F5F5F5F5F5F5F5F5F5F5F5F5F5F5
310
F5F5F5F5F5F5F5F5F5F5F5F5F5F5F5F5F5F5F5F5F5F5F5F5F5F5F5F5F5F5F5F5F5F5F5E2F5F5F5F5F5F5F5F5E2F5F5E2E2E2E2F5F5E2F5F5F5F5F5F5F5F5E2F5F5F5F5F5F5F5F5F5F5F5F5F5F5F5F5F5F5F5F5F5F5F5F5F5F5F5F5F5F5F5F5F5F5F5F5F5F5F5F5F5F5F5F5F5F5F5F5F5F5F5F5F5F5F5F5F5F5F5F5F5F5F5F5
310
F5F5F5F5F5F5F5F5F5F5F5F5F5F5F5F5F5F5F5F5F5F5F5F5F5F5F5F5F5F5F5F5F5F5F5F5F5F5F5F5F5F5F5F5F5F5F5F5F5F5F5F5F5F5F5F5F5F5F5F5F5F5F5F5F5F5F5F5F5F5F5F5F5F5F5F5F5F5F5F5F5F5F5F5F5F5F5F5E2F5F5F5F5F5F5F5F5E2F5F5E2E2E2E2F5F5E2F5F5F5F5F5F5F5F5E2F5F5F5F5F5F5F5F5F5F5F5
310
F5F5F5F5F5F5F5F5F5F5F5F5F5F5F5F5F5F5F5F5F5F5F5F5F5F5F5F5F5F5F5F5F5F5F5F5F5F5F5F5F5F5F5F5F5F5F5F5F5F5F5F5F5F5F5F5F5F5F5F5F5F5F5F5F5F5F5F5F5F5F5F5F5F5F5F5F5F5F5F5F5F5F5F5E2F5F5F5F5F5F5F5F5F5F5F5F5F5F5F5F5E2F5F5F5F5F5F5F5F5F5F5F5F5F5F5F5F5F5F5F5F5F5F5F5F5F5
310
F5F5F5F5F5F5F5F5F5F5F5F5F5F5E2F5F5F5F5F5F5F5F5E2F5F5E2E2E2E2F5F5E2F5F5F5F5F5F5F5F5E2F5F5F5F5F5F5F5F5F5F5F5F5F5F5F5F5F5F5F5F5F5F5F5F5F5F5F5F5F5F5F5F5F5F5F5F5F5F5F5F5F5F5F5F5F5F5F5F5F5F5F5F5F5F5F5F5F5F5F5F5F5F5F5F5F5F5F5F5F5F5F5F5F5F5F5F5F5F5F5F5F5F5F5F5F5
310
F5F5F5F5F5F5F5F5F5F5E2F5E2F5F5F5F5F5F5F5F5F5F5F5F5E2F5E2F5E2E2E2E2E2E2E2E2E2F5E2E2E2F5F5E2E2E2E2F5E2E2E2E2E2E2F5F5F5F5F5F5F5F5F5F5F5F5E2F5F5F5F5F5F5F5F5E2F5F5E2E2E2E2F5F5E2F5F5F5F5F5F5F5F5E2F5F5F5F5F5F5F5F5F5F5F5F5F5F5F5F5F5F5F5F5F5F5F5F5F5F5F5F5F5F5F5F5
310
F5F5F5F5F5F5F5F5F5F5F5F5F5F5F5F5F5F5F5F5F5F5F5F5F5F5F5F5F5F5F5F5F5F5F5F5F5F5F5F5F5F5F5F5F5F5F5F5F5F5F5F5F5F5F5F5F5F5F5F5F5F5F5E2E2E2E2E2E2E2E2E2E2E2E2E2E2E2E2E2E2F5F5E2E2E2E2E2E2E2E2F5E2F5E2F5F5E2E2E2F5E2E2E2E2E2F5E2F5F5F5F5F5F5F5F5F5F5F5F5E2F5F5F5F5F5F5
310
F5F5E2F5F5E2E2E2E2F5F5E2F5F5F5F5F5F5F5F5E2F5F5F5F5F5F5F5F5F5F5F5F5F5F5F5F5F5F5F5F5F5F5F5F5F5F5F5F5F5F5F5F5F5F5F5F5F5F5F5F5F5F5F5F5F5F5F5F5F5F5F5F5F5F5F5F5F5F5F5F5F5F5F5F5F5F5F5F5F5F5F5F5F5F5F5F5F5F5F5F5F5F5F5F5F5F5F5F5F5F5F5F5F5F5F5E2F5F5F5F5F5F5F5F5F5F5
310
F5F5F5F5F5F5E2F5F5E2F5E2F5E2F5E2F5F5E2E2E2F5F5E2F5E2F5E2E2E2E2E2E2E2F5F5F5F5F5F5F5F5F5F5F5F5E2F5F5F5F5F5F5F5F5E2F5F5E2E2E2E2F5F5E2F5F5F5F5F5F5F5F5E2F5F5F5F5F5F5F5F5F5F5F5F5F5F5F5F5F5F5F5F5F5F5F5F5F5F5F5F5F5F5F5F5F5F5F5F5F5F5F5F5F5F5F5F5F5F5F5F5F5F5F5F5F5
310
F5F5F5F5F5F5F5F5F5F5F5F5F5F5F5F5F5F5F5F5F5F5F5F5F5F5F5F5F5F5F5F5F5F5F5F5F5F5F5F5F5F5E2F5F5F5F5F5F5F5F5F5F5F5F5F5F5F5F5E2F5F5F5F5F5F5F5F5F5F5F5F5F5F5F5F5F5F5F5F5F5F5F5F5F5F5F5F5F5F5F5F5F5F5F5F5F5F5F5E2F5F5F5F5F5F5F5F5E2F5F5E2E2E2E2F5F5E2F5F5F5F5F5F5F5F5E2
310
F5F5F5F5F5F5F5F5F5F5F5F5F5F5F5F5F5F5F5F5F5F5F5F5F5F5F5F5F5F5F5F5F5F5F5F5F5F5F5F5F5F5F5F5F5F5F5F5F5F5F5F5F5F5F5F5F5F5F5F5F5F5F5F5F5F5F5F5F5F5F5F5F5F5F5F5F5F5F5F5F5F5F5F5F5F5F5F5F5F5F5F5F5F5F5E2F5F5F5F5F5F5F5F5F5F5F5F5F5F5F5F5E2F5F5F5F5F5F5F5F5F5F5F5F5F5F5
310
F5F5F5F5F5F5F5F5F5F5F5F5F5F5F5F5F5F5F5F5F5F5F5F5F5E2F5F5F5F5F5F5F5F5E2F5F5E2E2E2E2F5F5E2F5F5F5F5F5F5F5F5E2F5F5F5F5F5F5F5F5F5F5F5F5F5F5F5F5F5F5F5F5F5F5F5F5F5F5F5F5F5F5F5F5F5F5F5F5F5F5F5F5F5F5F5F5F5F5F5F5F5F5F5F5F5F5F5F5F5F5F5F5F5F5F5F5F5F5F5F5F5F5F5F5F5F5
310
F5F5F5F5F5F5F5F5F5F5F5F5F5F5F5F5F5F5F5F5F5E2F5F5F5E2F5F5F5F5F5F5F5F5F5F5F5F5E2F5F5F5F5F5F5F5F5F5F5F5F5F5F5F5F5F5F5F5F5F5F5F5F5F5F5F5F5F5F5F5F5F5F5F5F5F5F5F5E2F5F5F5F5F5F5F5F5E2F5F5E2E2E2E2F5F5E2F5F5F5F5F5F5F5F5E2F5F5F5F5F5F5F5F5F5F5F5F5F5F5F5F5F5F5F5F5F5
310
E2E2E2E2E2E2E2F5E2E2E2E2F5E2E2E2E2F5F5F5F5F5F5F5F5F5F5F5F5F5F5F5F5F5F5F5F5F5F5F5F5F5F5F5F5F5F5F5F5F5F5F5F5F5F5F5F5F5F5F5F5F5F5F5F5F5F5F5F5F5F5F5F5F5E2F5F5F5E2F5E2F5F5F5F5F5F5F5F5E2F5E2F5F5E2E2E2E2E2E2E2E2F5F5E2E2E2F5F5E2E2E2F5E2E2E2E2E2E2F5F5F5F5F5F5F5F5
310
F5F5F5F5E2F5F5F5F5F5F5F5F5E2F5F5E2E2E2E2F5F5E2F5F5F5F5F5F5F5F5E2F5F5F5F5F5F5F5F5F5F5F5F5F5F5F5F5F5F5F5F5F5E2E2E2E2E2E2E2F5E2E2E2F5E2E2E2E2E2E2E2E2F5F5F5F5F5F5F5F5F5F5F5F5F5F5F5F5F5F5F5F5F5F5F5F5F5F5F5F5F5F5F5F5F5F5F5F5F5F5F5F5F5F5F5F5F5F5F5F5F5F5F5F5F5F5
310
E2F5F5F5E2E2E2E2E2E2E2E2E2E2E2E2E2E2F5F5E2E2E2E2F5E2E2E2F5F5E2E2E2F5F5E2E2F5E2E2E2F5E2F5E2F5F5F5F5F5F5F5F5F5F5F5F5E2F5F5F5F5F5F5F5F5E2F5F5E2E2E2E2F5F5E2F5F5F5F5F5F5F5F5E2F5F5F5F5F5F5F5F5F5F5F5F5F5F5F5F5F5F5F5F5F5F5F5F5F5F5F5F5F5F5F5F5F5F5F5F5F5F5F5F5E2F5
310
F5F5F5F5F5F5F5F5F5F5F5F5F5F5F5F5F5F5F5F5F5F5F5F5F5F5F5F5F5F5F5F5F5F5F5F5F5F5F5F5F5F5F5F5F5F5F5F5F5F5F5F5F5E2F5F5F5E2F5F5F5F5F5F5F5F5F5F5F5F5E2F5F5E2E2E2E2E2E2E2E2F5F5E2E2E2F5F5E2E2F5E2F5E2F5E2E2E2F5F5F5F5F5F5F5F5F5F5F5F5E2F5F5F5F5F5F5F5F5E2F5F5E2E2E2E2F5
310
F5E2F5F5F5F5F5F5F5F5E2F5F5F5F5F5F5F5F5F5F5F5F5F5F5F5F5F5F5F5F5F5F5F5F5F5F5F5F5F5F5F5F5F5F5F5F5F5F5F5E2E2F5F5F5F5F5F5F5F5F5F5F5F5F5F5F5F5F5F5F5F5F5F5F5F5F5F5F5F5F5F5F5F5F5F5F5F5F5F5F5F5F5F5F5F5F5F5F5F5F5F5F5F5F5F5E2F5F5F5E2F5F5F5F5F5F5F5F5F5F5F5F5E2F5F5F5
310
F5F5F5F5F5F5F5F5F5F5F5F5F5F5F5F5F5F5F5F5F5F5F5F5F5F5F5F5F5F5F5F5F5F5F5F5E2F5F5F5F5F5F5F5F5E2F5F5E2E2E2E2F5F5E2F5F5F5F5F5F5F5F5E2F5F5F5F5F5F5F5F5F5F5F5F5F5F5F5F5F5F5F5F5F5F5F5F5F5F5F5F5F5F5F5F5F5F5F5F5F5F5F5F5E2F5F5F5F5F5F5F5F5F5F5F5F5E2E2E2E2E2E2E2E2E2E2
310
E2F5F5F5F5F5F5F5F5F5F5F5F5F5F5F5F5F5F5F5F5F5F5F5F5F5F5F5F5F5F5F5E2F5F5F5E2F5F5F5F5F5F5F5F5F5F5F5F5E2F5F5F5F5F5F5F5F5F5F5F5F5F5F5F5F5F5F5F5F5F5F5F5F5F5F5F5F5F5F5F5F5F5F5F5F5F5F5F5E2F5F5F5F5F5F5F5F5E2F5F5E2E2E2E2F5F5E2F5F5F5F5F5F5F5F5E2F5F5F5F5F5F5F5F5F5F5
310
F5F5F5F5F5F5F5F5F5F5F5F5F5F5F5F5F5F5F5F5F5F5F5F5F5F5F5F5E2E2E2E2E2E2E2E2E2E2E2E2E2E2E2E2E2E2E2E2E2BEBEE2E2E2E2E2F5F5F5F5F5F5F5F5F5F5F5F5F5F5F5F5F5F5F5F5F5F5F5F5F5F5F5F5F5E2F5F5F5E2F5F5F5F5E2E2E2E2E2E2E2E2E2F5F5F5F5F5F5F5F5F5F5F5F5F5F5F5F5F5F5F5F5F5F5F5F5
310
F5F5F5F5F5F5F5F5F5F5F5F5F5F5F5E2F5F5F5F5F5F5F5F5E2F5F5E2E2E2E2F5F5E2F5F5F5F5F5F5F5F5E2F5F5F5F5F5F5F5F5F5F5F5F5F5F5F5F5F5F5F5F5F5F5F5F5F5F5F5F5F5F5F5F5F5F5F5F5F5F5E2E2E2E2E2E2E2E2E2E2E2E2E2E2E2E2E2E2E2E2E2E2E2E2BEE2E2E2E2F5F5F5F5F5F5F5F5F5F5F5F5F5F5F5F5F5
310
F5F5F5F5F5F5F5F5F5F5F5E2F5E2F5E2E2E2E2E2E2F5F5F5F5F5F5E2E2E2E2E2E2E2E2E2E2F5F5F5F5F5F5F5F5F5F5F5F5F5F5F5F5F5F5F5F5F5F5F5F5F5F5F5F5F5F5F5E2F5F5F5F5F5F5F5F5E2F5F5E2E2E2E2F5F5F5F5F5F5F5F5F5F5F5E2F5F5F5F5F5F5F5F5F5F5F5F5F5F5F5F5F5F5F5F5F5F5F5F5F5F5F5F5F5F5F5
310
F5F5F5F5F5F5F5F5F5E2F5F5F5F5F5F5F5F5F5F5BEE2E2E2F5E2E2E2E2E2E2E2E2E2F5F5F5F5F5F5F5F5F5F5F5F5F5F5F5F5F5F5F5F5F5F5F5F5F5F5F5F5F5F5E2F5E2F5E2F5F5F5E2E2F5F5F5F5F5F5E2E2F5F5F5F5F5E2F5F5F5F5F5F5F5F5F5F5F5F5F5F5F5F5F5F5F5F5F5F5F5F5F5F5F5F5F5F5F5F5F5E2F5F5F5F5F5
310
F5F5F5F5F5F5E2E2E2E2F5F5F5F5F5F5F5F5F5F5F5E2F5F5F5F5F5F5F5F5F5F5F5F5F5F5F5F5F5F5F5F5F5F5F5F5F5F5F5F5F5F5F5F5F5F5F5F5F5F5F5E2E2F5F5F5F5F5F5E2E20FF5F5E2E2E2E2F5F5F5F5E2E2E2F5E2F50FE2E2F5F5F5F5F5F5F5F5F5F5F5F5F5F5F5F5F5F5F5F5F5F5F5F5F5F5E2E2E2F5E2F5F5F5E2E2
310
F5F5F5F5F5F5E2E2F5F5F5F5F5E2F5F5F5F5F5F5F5F5F5F5F5F5F5F5F5F5F5F5F5F5F5F5F5F5F5F5F5F5F5F5F5F5F5E2F5F5F5F5F5F5F5F5F5F5F5E2E2E2E2F5F5F5F5F5F5F5F5F5F5F5E2F5F5F5F5F5F5F5F5F5F5F5F5F5F5F5F5F5F5F5F5F5F5F5F5F5F5F5F5F5F5F5F5F5F5F5F5F5F5F5F5E2F5F5F5F5F5E2E20F0FE2E2
310
E2E2F5F5F5F5F5F5F5F5F5E2E2E2E20FF5E2F5F5F5E2F5F5F5F5F5F5F5F5F5F5F5F5F5F5F5F5F5F5F5F5F5E2E2E2F5E2F5F5F5E2E2F5F5F5F5F5F5E2E2F5F5F5F5F5E2F5F5F5F5F5F5F5F5F5F5F5F5F5F5F5F5F5F5F5F5F5F5F5F5F5F5F5F5F5F5F5F5F5E2F5F5F5F5F5F5F5F5F5F5F5E2E2E2E2F5F5F5F5F5F5F5F5F5F5F5
310
E2F5F5F5F5F5F5F5F5F5F5F5F5F5F5F5F5F5F5F5F5F5F5F5F5F5F5F5F5F5F5F5F5F5F5F5F5F5F5F5F5E2F5F5F5F5E2E2F5E2F5E2E20FE2F5F5F5F5F5F5F5F5F50FE2E2F5E2E2F5E2BEBEF5F5F5F5F5F5F5F5F5F5F5F5F5F5F5F5F5F5F5F5F5F5E2F5E2E2E2F5F5F5E2E2F5F5F5F5F5F5E2E2F5F5F5F5E2E2E2F5F5F5F5F5F5
310
F5F5F5F5F5F5F5F5F5F5F5F5F5F5F5F5F5F5F5F5F5F5F5F5F5F5E2F5F5F5F5F5F5F5F5F5F5F5E2E2E2E2F5F5F5F5F5F5F5F5F5F5F5E2F5F5F5F5F5F5F5F5F5F5F5F5F5F5F5F5F5F5F5F5F5F5F5F5F5F5F5F5F5F5F5F5F5F5F5F5F5F5F5F5F5F5F5F5F5E2F50FF5E2E2F50FF5F5F5F5F5BEF5F5F5F5F50FE2E2E20FBEE2E2F5
310
F5F5F5F5F5F5F5F5F5F5F5F5F5F5F5F5F5F5F5F5F5F5F5F5E2F5E2F5F5F5E2E2F5F5F5F5F5F5E2E2F5F5F5F5E2E2E2F5F5F5F5F5F5F5F5F5F5F5F5F5F5F5F5F5F5F5F5F5F5F5F5F5F5F5F5F5F5F5F5E2F5F5F5F5F5F5F5F5F5F5F5E2E2E2E2F5F5F5F5F5F5F5F5F5F5F5E2F5F5F5F5F5F5F5F5F5F5F5F5F5F5F5F5F5F5F5F5
310
F5F5F5F5F5F5F5F5F5F5F5F5F5F5F5F5F5F5F5F5F5F5F5F5E2F5F50FE2E2F5E2E2F5F5E2E2E2E2E2E2F5F5E2E2E2E2E2BE0FF5E2F5F5F5F5F5F5F5F5F5F5F5F5F5F5F5F5F5F5F5F5F5F5F5F5F5E2F5E2F5F5F5E2E2F5F5F5F5F5F5E2E2F5F5F5F5E2E2E2F5F5F5F5F5F5F5F5F5F5F5F5F5F5F5F5F5F5F5F5F5F5F5F5F5F5F5
310
F5F5F5F5F5E2F5F5F5F5F5F5F5F5F5F5F5E2E2E2E2F5F5F5F5F5F5F5F5F5F5F5E2F5F5F5F5F5F5F5F5F5F5F5F5F5F5F5F5F5F5F5F5F5F5F5F5F5F5F5F5F5F5F5F5F5F5F5F5F5F5F5F5F5F5F5F5E2F5E2F5E2F50FE2E2E2E2E2F5F5BEF5F5E2E2E2E20FF5BEF5E2F5E2F5F5F5F5F5F5F5F5F5F5F5F5F5F5F5F5F5F5F5F5F5F5
310
F5F5F5E2F5E2F5F5F5E2E2E2E2E2E2E2E2E2E2F5F5F5F5E2E2E2F5F5F5F5F5F5F5F5F5F5F5F5F5F5F5F5F5F5F5F5F5F5F5F5F5F5F5F5F5F5F5F5E2F5F5F5F5F5F5F5F5F5F5F5E2E2E2E2F5F5F5F5F5F5F5F5F5F5F5E2F5F5F5F5F5F5F5F5F5F5F5F5F5F5F5F5F5F5F5F5F5F5F5F5F5F5F5F5F5F5F5F5F5F5F5F5F5F5F5F5F5
310
F5F5E2E2F5E2E2E2F50FE2F5E2E2E2E2E2E2E2E2E2E2E2E2E20FE2E2E20FF5E2F5F5F5F5F5F5F5F5F5F5F5F5F5F5F5F5F5F5F5F5F5F5E2E2E2E2E2F5F5F5E2F5F5F5F5F5F5F5F5E2F5F5F5F5E2E2E2F5F5F5F5F5F5F5F5F5F5F5F5F5F5F5F5F5F5F5F5F5F5F5F5F5F5F5F5F5F5F5F5E2F5F5F5F5F5F5F5F5F5F5F5E2E2E2E2
310
F5F5F5F5F5F5F5F5F5F5F5E2F5F5F5F5F5F5F5F5F5F5F5F5F5F5F5F5F5F5F5F5F5F5F5F5F5F5F5F5F5F5F5F5F5F5F5F5F5F5F5F5F5F5F5E2E20FF5E2E2E2E2E2E2E2E2E2F5E2E2F5E2E2E2E2E2E2E2E2E2F50FF5E2F5F5F5F5F5F5F5F5F5F5F5F5F5F5F5F5F5F5F5F5F5F5E2E2F5E2E2F5F5F5E2F5F5F5F5F5F5F5F5E2F5F5
310
F5F5E2E2E2F5F5F5F5F5F5F5F5F5F5F5F5F5F5F5F5F5F5F5F5F5F5F5F5F5F5F5F5F5F5F5F5E2F5F5F5F5F5F5F5F5F5F5F5E2E2E2E2F5F5F5F5F5F5F5F5F5F5F5E2F5F5F5F5F5F5F5F5F5F5F5F5F5F5F5F5F5F5F5F5F5F5F5F5F5F5F5F5F5F5F5F5F5F5F5F5F5F5F5F5F5F5F5F5F50FE2E20FE2E2E2E2E2E2F5E2E2E2E2F5E2
310
E2E2E2E2E20FE2F5E20FF5F5F5F5F5F5F5F5F5F5F5F5F5F5F5F5F5F5F5F5F5F5F5E2E2F5F5E2F5F5F5E2F5F5F5F5F5F5F5F5E2F5F5F5F5E2E2E2F5F5F5F5F5F5F5F5F5F5F5F5F5F5F5F5F5F5F5F5F5F5F5F5F5F5F5F5F5F5F5F5E2F5F5F5F5F5F5F5F5F5F5F5E2E2E2E2F5F5E2F5F5F5F5F5F5F5F5E2F5F5F5F5F5F5F5F5F5
310
F5F5F5F5F5F5F5F5F5F5F5F5F5F5F5F5F5F5F5F5F5F5F5F5F5F5F5F5F5F5F5F5F5F5F5F5F5F5E20FF5F5E2E2E2F5E2E2F5E2E2E2F5E2E2E2F5F50FE2E2F5F5F5F5F5F5F5F5F5F5F5F5F5F5F5F5F5F5F5F5F5F5F5F5F5E2E2F5F5E2F5F5F5E2F5F5F5F5F5F5F5F5E2F5F5F5F5E2E2E2F5F5F5F5F5F5F5F5F5F5F5F5F5F5F5F5
310
F5F5F5F5F5F5F5F5F5F5F5F5F5F5F5F5E2F5F5F5F5F5F5F5F5E2F5F5E2E2E2E2F5F5E2F5F5F5F5F5F5F5F5E2F5F5F5F5F5F5F5F5F5F5F5F5F5F5F5F5F5F5F5F5F5F5F5F5F5F5F5F5F5F5F5F5F5F5F5E2E2E2E2E2E2E2E2E2E2E2E2E2E2E2BEBEBEBEBEE2E2E2E2E2E2BEBEBEBEBEE2E2E2E2BEE2E2F5F5F5F5F5F5F5F5F5F5
310
F5F5F5F5F5F5F5F5F5F5F5F5E2E2F5F5E2F5F5F5E2F5F5F5F5F5F5F5F5E2F5F5F5F5F5F5F5F5F5F5F5F5F5F5F5F5F5F5F5F5F5F5F5F5F5F5F5F5F5F5F5F5F5F5F5F5F5F5F5E2F5F5F5F5F5F5F5F5E2F5F5E2E2E2E2F5F5E2F5F5F5F5F5F5F5F5E2F5F5F5F5F5F5F5F5F5F5F5F5F5F5F5F5F5F5F5F5F5F5F5F5F5F5F5F5F5F5
310
F5F5F5F5F5F5F5E2F5F5F5F5F5E2E2E2E2E2F5F5F5E2E2E2F5E2E2BEE2E2E2F5E2F5E2F5F5F5E2F5E2E2E2F5F5F5F5F5F5F5F5F5F5F5F5F5F5F5F5F5F5F5F5F5F5E2E2E2E2E2F5F5F5E2F5F5F5F5F5F5F5F5E2F5F5F5F5E2E2E2F5F5F5F5F5F5F5F5F5F5F5F5F5F5F5F5F5F5F5F5F5F5F5F5F5F5F5F5F5F5F5F5E2F5F5F5F5
310
F5F5F5F5E2F5F5E2E2E2E2F5F5E2F5F5F5F5F5F5F5F5E2F5F5F5F5F5F5F5F5F5F5F5F5F5F5F5F5F5F5F5F5F5F5F5F5F5F5F5F5F5F5F5F5F5F5F5F5F5E2F5F5F5F5F5E2E2BEE2E2F5F5F5F5E2E2E2BEE2E2E2E2F5E2E2E2E2F5F5F5E2F5E2E2E2F5F5F5F5F5F5F5F5F5F5F5F5F5F5F5F5F5F5F5F5F5F5E2E2E2E2E2F5F5F5E2
310
F5F5F5F5F5F5F5F5E2F5F5F5F5E2F5E2F5F5F5F5F5F5F5F5F5F5F5F5F5F5F5F5F5F5F5F5F5F5F5F5F5F5F5F5F5F5F5F5E2F5F5F5F5F5F5F5F5E2F5F5E2E2E2E2F5F5E2F5F5F5F5F5F5F5F5E2F5F5F5F5F5F5F5F5F5F5F5F5F5F5F5F5F5F5F5F5F5F5F5F5F5F5F5F5F5F5F5F5F5F5F5F5F5E2F5F5F5F5F5E2E2E2E2E2F5F5F5
310
F5E2BEE2E2F5E2E2F5E2E2F5E2F5F5F5F5E2E2E2E2E2F5F5F5F5F5F5F5F5F5F5F5F5F5F5F5F5F5F5F5F5F5F5E2E2E2E2E2F5F5F5E2F5F5F5F5F5F5F5F5E2F5F5F5F5E2E2E2F5F5F5F5F5F5F5F5F5F5F5F5F5F5F5F5F5F5F5F5F5F5F5F5F5F5F5F5F5F5F5F5E2F5F5F5F5F5F5F5F5E2F5F5E2E2E2E2F5F5E2F5F5F5F5F5F5F5
310
F5E2F5F5F5F5F5F5F5F5F5F5F5F5F5F5F5F5F5F5F5F5F5F5F5F5F5F5F5F5F5F5F5F5F5F5F5E2E2E2E2F5F5F5F5E2E2E2E2E2E2F5E2BEF5E2F5E2E2E2E2E2E2F5E2E2F5F5F5F5E2E2BEE2E2F5F5F5F5F5F5F5F5F5F5F5F5F5F5F5F5F5F5F5F5F5F5E2E2E2E2E2F5F5F5E2F5F5F5F5F5F5F5F5E2F5F5F5F5E2E2E2F5F5F5F5F5
310
F5F5F5F5F5F5F5F5F5F5F5F5F5F5F5F5F5F5F5F5F5F5F5F5F5F5F5E2F5F5F5F5F5F5F5F5E2F5F5E2E2E2E2F5F5E2F5F5F5F5F5F5F5F5E2F5F5F5F5F5F5F5F5F5F5F5F5F5F5F5F5F5F5F5F5F5F5F5F5F5F5F5F5F5F5F5F5F5F5F5F5E2E2E2E2F5F5F5F5E2E2E2E2E2F5E2F5F5E2E2E2E2E2E2E2F5E2E2F5F5F5F5E2F5E2BEE2
310
E2F5F5F5F5F5F5F5F5F5F5F5F5F5F5F5F5F5F5F5F5F5F5E2F5F5E2E2F5F5F5E2F5F5F5F5F5F5F5F5E2F5F5F5F5E2E2E2F5F5F5F5F5F5F5F5F5F5F5F5F5F5F5F5F5F5F5F5F5F5F5F5F5F5F5F5F5F5F5F5E2F5F5F5F5F5F5F5F5E2F5F5E2E2E2E2F5F5E2F5F5F5F5F5F5F5F5E2F5F5F5F5F5F5F5F5F5F5F5F5F5F5F5F5F5F5F5
310
F5F5F5F5F5F5F5F5F5F5F5F5F5F5F5F5E2E2E2E2E2E2F5F5F5E2E2E2E2E2E2F5F5F5F5F5E2E2E2BEE2E2F5F5F5F5F5E2E2E2BEE2E2F5F5F5F5F5F5F5F5F5F5F5F5F5F5F5F5F5F5F5F5F5F5F5E2F5F5E2E2F5F5F5E2F5F5F5F5F5F5F5F5E2F5F5F5F5F5E2F5F5F5F5F5F5F5F5F5F5F5F5F5F5F5F5F5F5F5F5F5F5F5F5F5F5F5
310
F5F5F5F5F5F5E2F5F5F5F5F5F5F5F5E2F5F5E2E2E2E2F5F5E2F5F5F5F5F5F5F5F5E2F5F5F5F5F5F5F5F5F5F5F5F5F5F5F5F5F5F5F5F5F5F5F5F5F5F5F5F5F5F5F5F5F5F5F5F5F5F5E2F5F5F5F5F5F5E2E2E2E2E2E2F5F5F5F5E2E2E2E2E2E2F5F5F5F5E2E2E2E2BEE2E2F5F5F5F5F5F5F5F5F5F5F5F5F5F5F5F5F5F5F5F5F5
310
F5F5E2F5F5E2E2F5F5F5E2F5F5F5F5F5F5F5F5E2F5F5F5F5F5E2F5F5F5F5F5F5F5F5F5F5F5F5F5F5F5F5F5F5F5F5F5F5F5F5F5F5F5F5F5F5F5F5F5E2F5F5F5F5F5F5F5F5E2F5F5E2E2E2E2F5F5E2F5F5F5F5F5F5F5F5E2F5F5F5F5F5F5F5F5F5F5F5F5F5F5F5F5F5F5F5F5F5F5F5F5F5F5F5F5F5F5F5F5F5F5F5F5F5F5E2E2
310
F5F5F5F5E2E2E2E2E2E2E2E2F5E2F5E2E2E2E2E2E2F5E2E2E2E2E2E2BEE2E2F5F5F5F5F5F5F5F5F5F5F5F5F5F5F5F5F5F5F5F5F5F5F5F5E2E2F5F5E2F5F5F5E2F5F5F5F5F5F5F5F5E2F5F5F5F5F5E2F5F5F5F5F5F5F5F5F5F5F5F5F5F5F5F5F5F5F5F5F5F5F5F5F5F5F5F5F5F5F5F5F5E2F5F5F5F5F5F5F5F5E2F5F5E2E2E2
310
E2F5F5E2F5F5F5F5F5F5F5F5E2F5F5F5F5F5F5F5F5F5F5F5F5F5F5F5F5F5F5F5F5F5F5F5F5F5F5F5F5F5F5F5F5F5F5F5F5F5F5F5E2E2F5E2E2F5F5E2E2E2E2E2E2E20F0FE2E20F0FE2E20F0FE2E2E2E2BEE2E2F5F5F5F5F5F5F5F5F5F5F5F5F5F5F5F5F5F5F5F5F5F5F5F5F5E2E2F5E2E2E2E2E2E2E2E2E2E2E2E2E2E2E2E2
310
E2E2E2E2E2E2E2F5F5F5F5F5F5F5F5F5F5F5F5F5F5F5F5F5F5F5F5F5F5F5F5F5F5F5F5F5F5F5E2F5F5F5F5F5F5F5F5E2F5F5E2E2E2E2F5F5E2F5F5F5F5F5F5F5F5E2F5F5F5F5F5F5F5F5F5F5F5F5F5F5F5F5F5F5F5F5F5F5F5F5F5F5F5F5F5F5F5F5F5F5F5F5F5F5F5F5E2E2F5F5F5F5E2E2E2E2E2E2E2E2E2E2E2F5F5E2E2
310
E2E2F5E2E2BEE2E2E2F5F5F5F5F5F5F5F5F5F5F5F5F5F5F5F5F5F5F5F5F5F5F5F5F5E2F5E2E2E2E2E2F5E2F5F5F5F5F5F5F5E2E2F5F5F5F5F5F5F5F5F5F5F5F5F5F5F5F5F5F5F5F5F5F5F5F5F5F5F5F5F5F5F5F5F5F5F5F5F5F5F5E2F5F5F5F5F5F5F5F5E2F5F5E2E2E2E2F5F5E2F5F5F5F5F5F5F5F5E2F5F5F5F5F5F5F5F5
310
F5F5F5F5F5F5F5F5F5F5F5F5F5F5F5F5F5F5F5F5F5F5F5F5F5F5F5F5F5F5E2E2F5F5F5F5F5E2F5F5E2E2E2E2E2E2F5E2E2E2E2E2E2F5E2F5E2E2E2E2F5F5F5F5F5F5F5F5F5F5F5F5F5F5F5F5F5F5F5F5F5F5F5F5F5F5F5E2F5E2F5E2E2E2F5E2F5F5F5F5F5F5F5E2E2F5F5F5F5F5F5F5F5F5F5F5F5F5F5F5F5F5F5F5F5F5F5
310
F5F5F5F5F5F5F5F5F5F5F5F5F5F5F5F5F5E2F5F5F5F5F5F5F5F5E2F5F5E2E2E2E2F5F5E2F5F5F5F5F5F5F5F5E2F5F5F5F5F5F5F5F5F5F5F5F5F5F5F5F5F5F5F5F5F5F5F5F5F5F5F5F5F5F5F5F5F5F5F5F5F5F5F5F5F5F5F5F5E2F5F5F5F5E2E2E2F50F0FE2E20F0FE2E20F0FF5F5E2E2F5F5F5F5F5F5F5F5F5F5F5F5F5F5F5
310
F5F5F5F5F5F5F5F5F5F5F5F5F5F5F5E2F5E2E2E2F5E2F5F5F5F5F5F5F5E2F5F5F5F5F5F5F5F5F5F5F5F5F5F5F5F5F5F5F5F5F5F5F5F5F5F5F5F5F5F5F5F5F5F5F5F5F5F5F5F5E2F5F5F5F5F5F5F5F5E2F5F5E2E2E2E2F5F5E2F5F5F5F5F5F5F5F5E2F5F5F5F5F5F5F5F5F5F5F5F5F5F5F5F5F5F5F5F5F5F5F5F5F5F5F5F5F5
310
F5F5F5F5F5F5F5F5F5F5F5F5F5F5E2F5F5F5E2E2F5F5F5F5E2F5F5F5F5F5F5F5F5E2F5F5F5F5F5F5F5F5F5F5F5F5F5F5F5F5F5F5F5F5F5F5F5F5F5F5F5F5F5F5F5F5F5F5E2F5E2E2E2F5E2F5F5F5F5F5F5F5E2F5F5F5F5F5F5F5F5F5F5F5F5F5F5F5F5F5F5F5F5F5F5F5F5F5F5F5F5F5F5F5F5F5F5F5F5F5F5F5F5E2F5F5F5
310
F5F5F5F5F5E2F5F5E2E2E2E2F5F5E2F5F5F5F5F5F5F5F5E2F5F5F5F5F5F5F5F5F5F5F5F5F5F5F5F5F5F5F5F5F5F5F5F5F5F5F5F5F5F5F5F5F5F5F5F5F5F5F5F5F5F5E2F5F5F5F5E2F5F5F5F5F5E2E2E2E2E2E2E2E2E2E2F5F5F5F5F5F5F5F5F5F5F5F5F5F5F5F5F5F5F5F5F5F5F5F5F5F5F5F5F5F5F5F5F5F5F5F5E2E2E2F5
310
E2F5F5F5F5F5F5F5E2F5F5F5F5F5F5F5F5F5F5F5F5F5F5F5F5F5F5F5F5F5F5F5F5F5F5F5F5F5F5F5F5F5F5F5F5F5F5F5F5E2F5F5F5F5F5F5F5F5E2F5F5E2E2E2E2F5F5F5F5F5F5F5F5F5F5F5E2F5F5F5F5F5F5F5F5F5F5F5E2E2E2E2E2E2E2E2E2E2F5F5E2E2E2E2E2E2F5E2E2E2F5E2E2E2E2F5F5F5E2F5F5F5F5F5E2F5F5
310
F5F5F5F5F5F5F5F5F5E2F5E2F5F5F5F5F5F5F5F5F5F5F5F5F5F5E2E2E2E2E2E2F5F5E2E2E2E2E2F5E2E2E2E2E2F5F5E2F5E2E2E2F5E2F5F5F5F5F5F5F5E2F5F5F5F5F5F5F5F5F5F5F5F5F5F5F5F5F5F5F5F5F5F5F5F5F5F5F5F5F5F5F5F5F5F5F5F5F5F5F5F5E2F5F5F5F5F5F5F5F5F5F5F5E2E2E2E2F5F5F5F5F5F5F5F5F5
310
F5F5E2F5F5F5F5F5F5F5F5F5F5F5E2E2E2E2E2E2E2E2E2E2F5F5E2E2E2E2E2E2F5E2E2F5E2E2E2F5E2E2E2E2F5F5F5F5F5E2F5F5F5F5F5F5F5F5F5F5F5F5E2F5F5E2F5F5F5F5F5F5F5F5F5F5F5F5F5F5E2F5E2E2F5E2F5E2F5E2E2F5E2E2E2E2F5E2E2E2E2E2E2E2E2E2E2E2E2F5F5F5F5F5E2F5F5F5F5F5F5F5F5F5F5F5F5
310
F5F5F5F5F5F5F5F5F5F5F5F5F5F5F5F5F5F5F5F5F5F5F5F5F5F5F5F5E2F5F5F5F5F5F5F5F5F5F5F5E2E2E2E2F5F5F5F5F5F5F5F5F5F5F5E2F5F5F5F5F5F5F5F5F5F5F5F5E2F5E2E2F5E2E2E2E2F5F5E2E2E2F5E2F5F5E2E2F5E2E2E2E2E2F5F5F5F5F5F5F5E2F5F5F5F5F5F5F5F5F5F5F5F5F5E2F5F5E2F5F5F5F5F5F5F5F5
310
F5F5F5F5F5F5E2F5E2E2E2E2F5E2E2E2E2F5E2E2F5E2E2E2F5F5F5F5E2E2E2F5E2F5F5F5F5F5F5F5E2F5F5F5F5F5F5F5F5F5F5F5F5F5F5F5F5F5F5F5F5F5F5F5F5F5F5F5F5F5F5F5F5F5F5F5F5F5F5F5F5E2F5F5F5F5F5F5F5F5F5F5F5E2E2E2E2F5F5F5F5F5F5F5F5F5F5F5E2F5F5F5F5F5F5F5F5F5F5F5F5F5F5F5F5F5F5
310
F5F5F5F5F5F5F5F5F5F5F5F5F5F5F5F5F5F5F5F5F5F5F5F5F5F5E2F5F5F5F5F5F5F5F5F5F5F5F5F5F5F5E2F5E2F5F5F5F5F5F5F5F5F5F5F5F5F5F5F5F5F5F5F5F5F5F5F5F5F5F5F5F5F5F5F5F5F5F5F5F5E2E2E2F5E2F5F5F5F5F5F5F5E2F5F5F5F5F5F5F5F5F5F5F5F5F5F5F5F5F5F5F5F5F5F5F5F5F5F5F5F5F5F5F5F5F5
310
F5F5F5F5F5F5F5E2F5F5F5F5F5F5F5F5F5F5F5E2E2E2E2F5F5F5F5F5F5F5F5F5F5F5E2F5F5F5F5F5F5F5F5F5F5F5F5F5F5F5F5F5F5F5F5F5F5F5F5F5F5F5F5F5F5F5F5F5F5F5F5F5F5F5F5F5F5F5F5E2F5F5F5F5F5F5F5F5F5F5F5F5F5F5F5E2F5E2F5F5F5F5F5F5F5F5F5F5F5F5F5F5F5F5F5F5F5F5F5F5F5F5F5F5F5F5F5
310
F5F5F5F5F5F5F5F5E2E2F5E2F5F5F5F5F5F5F5E2F5F5F5F5F5F5F5F5F5F5F5F5F5F5F5F5F5F5F5F5F5F5F5F5F5F5F5F5F5F5F5F5F5F5F5F5F5F5F5F5E2F5F5F5F5F5F5F5F5F5F5F5E2E2E2E2F5F5F5F5F5F5F5F5F5F5F5E2F5F5F5F5F5F5F5F5F5E2E2E2E2E2E2E2E2E2E2E2F5E2E2E2E2E2E2F5F5F5E2E2E2F5E2E2E2E2E2
310
E2F5F5F5E2F5F5F5F5F5F5F5F5F5F5F5F5F5F5F5F5E2E2F5E2F5F5F5F5F5F5F5F5F5F5F5F5F5F5F5F5F5F5F5F5F5F5F5F5F5F5F5F5F5F5F5F5F5F5F5F5E2E2E2E2F5F5F5F5F5F5F5E2F5F5F5F5F5F5F5F5F5F5F5F5F5F5F5F5F5F5F5F5F5F5F5F5F5F5F5F5F5F5F5F5F5F5F5F5F5F5F5F5E2F5F5F5F5F5F5F5F5F5F5F5E2E2
310
E2E2F5F5F5F5F5F5F5F5F5F5F5E2F5F5F5F5F5F5F5F5F5E2E2E2E2E2E2F5E2E2E2E2F5E2F5E2E2E2E2F5F5E2E2E2E2E2E2E2E2E2E2E2E2E2E2F5F5F5F5F5F5F5F5F5F5F5F5F5F5F5F5F5E2E2E2E2F5F5F5F5F5F5F5F5F5F5F5F5F5F5F5F5F5F5F5F5F5F5F5F5F5F5F5F5F5F5F5F5F5F5F5F5E2E2E2E2F5F5F5F5F5F5F5E2F5
310
F5F5F5F5F5F5F5F5F5F5F5F5F5F5F5F5F5F5F5F5F5F5F5F5F5F5F5F5F5F5F5F5F5F5F5F5F5F5F5E2F5F5F5F5F5F5F5F5F5F5F5E2E2E2E2F5F5F5F5F5F5F5F5F5F5F5E2F5F5F5F5F5F5F5F5F5E2E2F5E2E2E2F5E2E2E2E2F5E2E2E2E2E2E2F5F5F5E2E2E2F5E2E2F5E2E2E2F5F5F5F5F5F5F5F5F5F5F5F5F5F5F5F5F5F5F5F5
310
F5F5E2F5F5F5F5F5F5F5F5F5F5F5F5F5F5F5F5F5F5F5F5F5F5F5F5F5F5F5F5F5F5F5F5F5F5F5F5F5E2E2E2E2F5F5F5F5F5F5F5E2F5F5F5F5F5F5F5F5F5F5F5F5F5F5F5F5F5F5F5F5F5F5F5F5F5F5F5F5F5F5F5F5F5F5F5F5F5F5F5F5E2F5F5F5F5F5F5F5F5F5F5F5E2E2E2E2F5F5F5F5F5F5F5F5F5F5F5E2F5F5F5F5F5F5F5
310
F5F5F5F5F5F5F5F5F5F5F5F5F5F5F5F5F5F5F5F5F5F5F5F5F5F5F5F5F5F5F5F5F5F5F5F5F5F5F5F5F5F5F5F5F5F5F5F5F5F5F5F5F5F5F5F5F5F5F5F5F5F5F5F5F5F5F5F5F5F5F5F5F5F5F5F5F5F5F5F5F5F5F5F5F5F5F5F5F5F5F5F5F5E2F5F5E2F5F5F5F5F5F5F5E2F5F5F5F5F5F5F5F5F5F5F5F5F5F5F5F5F5F5F5F5F5F5
310
F5F5F5F5F5F5F5F5F5F5F5F5F5F5F5F5F5F5E2F5F5F5F5F5F5F5F5F5F5F5E2E2E2E2F5F5E2F5F5F5F5F5F5F5F5E2F5F5F5F5F5F5F5F5F5F5F5F5F5F5F5F5F5F5F5F5F5F5F5F5F5F5F5F5F5F5F5F5F5F5F5F5F5F5F5F5F5F5F5F5F5F5F5F5F5F5F5F5F5F5F5F5F5F5F5F5F5F5F5F5F5F5F5F5F5F5F5F5F5F5F5F5F5F5F5F5F5
310
F5F5F5F5F5E2E2E2E2E2E2E2E2E2E2E2E2E2E2E2E2E2E2F5F5F5F5F5F5F5E2F5F5F5F5F5F5F5F5F5F5F5F5F5F5F5F5F5F5F5F5F5F5F5F5F5F5F5F5F5F5F5F5F5F5F5F5F5F5F5F5E2F5F5F5F5F5F5F5F5E2F5F5E2E2E2E2F5F5E2F5F5F5F5F5F5F5F5E2F5F5F5F5F5F5F5F5F5F5F5F5F5F5F5F5F5F5F5F5F5F5F5F5F5F5F5F5
310
F5F5F5F5F5F5F5F5F5F5F5F5F5F5F5F5F5F5F5F5F5F5F5F5F5F5F5F5F5F5F5F5F5F5F5F5F5F5F5F5F5F5F5F5F5F5F5F5F5F5F5F5F5F5F5F5F5F5F5F5E2F5F5F5F5F5F5F5F5F5F5F5E2E2E2E2F5F5F5F5F5F5F5E2F5F5F5F5F5F5F5F5F5F5F5F5F5F5F5F5F5F5F5F5F5F5F5F5F5F5F5F5F5F5F5F5F5F5F5F5F5F5F5F5E2F5F5
310
F5F5F5F5F5F5E2F5F5E2E2E2E2F5F5E2F5F5F5F5F5F5F5F5E2F5F5F5F5F5F5F5F5F5F5F5F5F5F5F5F5F5F5F5F5F5F5F5F5F5F5F5F5F5F5F5F5F5F5F5F5F5F5F5F5F5F5F5F5F5F5F5F5F5F5F5F5F5F5F5F5F5F5F5F5F5F5F5F5F5F5F5F5F5F5F5F5F5F5F5F5F5F5F5F5F5F5F5F5F5F5F5E2E2F5F5F5F5F5F5F5F5F5F5F5E2E2
310
E2E2F5F5F5F5F5F5F5F5E2F5F5F5F5F5F5F5F5F5F5F5F5F5F5F5F5F5F5F5F5F5F5F5F5F5F5F5F5F5F5F5F5F5F5F5F5F5F5F5E2F5F5F5F5F5F5F5F5E2F5F5E2E2E2E2F5F5E2F5F5F5F5F5F5F5F5E2F5F5F5F5F5F5F5F5F5F5F5F5F5F5F5F5F5F5F5F5F5F5F5F5F5F5F5F5F5F5F5F5F5F5F5F5F5F5F5F5F5F5F5F5F5F5F5F5F5
310
F5F5F5F5F5F5F5F5F5F5F5F5F5F5F5F5F5F5F5F5F5F5F5F5F5F5F5F5F5F5F5F5F5F5F5F5F5F5F5E2F5F5F5F5F5F5F5F5F5F5E2E2E2E2E2F5F5F5F5F5F5E2E2E2F5F5F5F5F5F5F5F5F5F5F5F5F5F5F5F5F5F5F5F5F5F5F5F5F5F5F5F5F5F5F5F5F5F5F5F5F5F5F5E2F5F5F5F5F5F5F5F5E2F5F5E2E2E2E2F5F5E2F5F5F5F5F5
310
F5F5F5E2F5F5F5F5F5F5F5F5F5F5F5F5F5F5F5F5F5F5F5F5F5F5F5F5F5F5F5F5F5F5F5F5F5F5F5F5F5F5F5F5F5F5F5F5F5F5F5F5F5F5F5F5F5F5F5F5F5F5F5F5F5F5F5F5F5F5F5F5F5F5F5F5F5F5F5F5F5F5F5F5F5F5F5F5F5F5F5F5E2F5F5F5F5F5F5F5F5F5F5E2E2E2E2E2E2F5F5F5F5F5E2E2E2F5F5F5F5F5F5F5F5F5F5
310
F5F5F5F5F5F5F5F5F5F5F5F5F5F5F5F5F5F5F5F5F5F5F5F5F5F5F5F5F5E2F5F5F5F5F5F5F5F5E2F5F5E2E2E2E2F5F5E2F5F5F5F5F5F5F5F5E2F5F5F5F5F5F5F5F5F5F5F5F5F5F5F5F5F5F5F5F5F5F5F5F5F5F5F5F5F5F5F5F5F5F5F5F5F5F5F5F5F5F5F5F5F5F5F5F5F5F5F5F5F5F5F5F5F5F5F5F5F5F5F5F5F5F5F5F5F5F5
310
F5F5F5F5F5F5F5F5F5F5F5F5F5F5F5F5F5F5E2F5F5F5F5F5F5F5F5F5F5E2E2E2E2E2E2F5F5F5F5F5E2E2E2F5F5F5F5F5F5F5F5F5F5F5F5F5F5F5F5F5F5F5F5F5F5F5F5F5F5F5F5F5F5F5F5F5F5F5F5F5F5F5E2F5F5F5F5F5F5F5F5E2F5F5E2E2E2E2F5F5E2F5F5F5F5F5F5F5F5E2F5F5F5F5F5F5F5F5F5F5F5F5F5F5F5F5F5
310
F5F5F5F5F5F5F5F5F5F5F5F5F5F5F5F5F5F5F5F5F5F5F5F5F5F5F5F5F5F5F5F5F5F5F5F5F5F5F5F5F5F5F5F5F5F5F5F5F5F5F5F5F5F5F5F5F5F5F5F5F5F5F5F5F5F5F5F5F5F5F5E2F5F5F5F5F5F5F5F5F5F5E2E2E2E2E2E2F5F5F5F5F5E2F5E2F5F5F5F5F5F5F5F5F5F5F5F5F5F5F5F5F5F5F5F5F5F5F5F5F5F5F5F5F5F5F5
310
F5F5F5F5F5F5F5F5E2F5F5F5F5F5F5F5F5E2F5F5E2E2E2E2F5F5E2F5F5F5F5F5F5F5F5E2F5F5F5F5F5F5F5F5F5F5F5F5F5F5F5F5F5F5F5F5F5F5F5F5F5F5F5F5F5F5F5F5F5F5F5F5F5F5F5F5F5F5F5F5F5F5F5F5F5F5F5F5F5F5F5F5F5F5F5F5F5F5F5F5F5F5F5F5F5F5F5F5F5F5F5F5F5F5F5F5F5F5F5F5F5F5F5F5E2F5F5
310
F5F5F5F5F5F5F5E2E2E2E2E2E2E2F5F5F5F5F5E2E2F5F5F5F5F5F5F5F5F5F5F5F5F5F5F5F5F5F5F5F5F5F5F5F5F5F5F5F5F5F5F5F5F5F5F5F5F5F5F5F5E2F5F5F5F5F5F5F5F5E2F5F5E2E2E2E2F5F5E2F5F5F5F5F5F5F5F5E2F5F5F5F5F5F5F5F5F5F5F5F5F5F5F5F5F5F5F5F5F5F5F5F5F5F5F5F5F5F5F5F5F5F5F5F5F5F5
310
F5F5F5F5F5F5F5F5F5F5F5F5F5F5F5F5F5F5F5F5F5F5F5F5F5F5F5F5F5F5F5F5F5F5F5F5F5F5F5F5F5F5F5F5F5F5F5F5F5F5E2F5F5F5F5F5F5F5F5F5E2E2E2E2F5E2E2F5F5F5F5F5F5F5F5F5F5F5F5F5F5F5F5F5F5F5F5F5F5F5F5F5F5F5F5F5F5F5F5F5F5F5F5F5F5F5F5F5F5F5F5F5F5F5E2F5F5F5F5F5F5F5F5E2F5F5E2
310
E2E2E2F5F5E2F5F5F5F5F5F5F5F5E2F5F5F5F5F5F5F5F5F5F5F5F5F5F5F5F5F5F5F5F5F5F5F5F5F5F5F5F5F5F5F5F5F5F5F5F5F5F5F5F5F5F5F5F5F5F5F5F5F5F5F5F5F5F5F5F5F5F5F5F5F5F5F5F5F5F5F5F5F5F5F5F5F5F5F5F5F5F5F5F5F5F5F5F5F5F5F5E2F5E2F5F5F5F5F5F5F5F5E2E2E2E2F5E2E2F5F5F5F5F5F5F5
310
F5F5F5F5F5F5F5F5F5F5F5F5F5F5F5F5F5F5F5F5F5F5F5F5F5F5F5F5F5F5F5F5F5F5F5F5F5F5F5F5E2F5F5F5F5F5F5F5F5E2F5F5E2E2E2E2F5F5E2F5F5F5F5F5F5F5F5E2F5F5F5F5F5F5F5F5F5F5F5F5F5F5F5F5F5F5F5F5F5F5F5F5F5F5F5F5F5F5F5F5F5F5F5F5F5F5F5F5F5F5F5F5F5F5F5F5F5F5F5F5F5F5F5F5F5F5F5
310
F5F5F5F5F5F5F5F5F5F5F5F5F5F5F5F5F5F5F5F5F5F5F5F5F5F5F5F5E2E2F5F5F5F5F5F5F5F5F5E2E2E2E2F5E2E2E2F5F5F5F5E2E2E2F5F5F5F5F5F5F5F5F5F5F5F5F5F5F5F5F5F5F5F5F5F5F5F5F5F5F5F5F5F5F5F5F5F5F5F5F5F5F5E2F5F5F5F5F5F5F5F5E2F5F5E2E2E2E2F5F5E2F5F5F5F5F5F5F5F5E2F5F5F5F5F5F5
310
F5F5F5F5F5F5F5F5F5F5F5F5F5F5F5F5F5F5F5F5F5F5F5F5F5F5F5F5F5F5F5F5F5F5F5F5F5F5F5F5F5F5F5F5F5F5F5F5F5F5F5F5F5F5F5F5F5F5F5F5F5F5F5F5F5F5F5F5F5F5F5F5F5F5F5F5F5F5F5F5F5E2E2E2F5F5F5F5F5F5F5E2E2E2E2E2F5E2E2E2F5F5F5F5E2E2E2F5F5F5F5F5F5F5F5F5F5F5F5F5F5F5F5F5F5F5F5
310
F5F5F5F5F5F5F5F5F5F5F5F5F5F5F5F5F5F5F5E2F5F5F5F5F5F5F5F5E2F5F5E2E2E2E2F5F5E2F5F5F5F5F5F5F5F5E2F5F5F5F5F5F5F5F5F5F5F5F5F5F5F5F5F5F5F5F5F5F5F5F5F5F5F5F5F5F5F5F5F5F5F5F5F5F5F5F5F5F5F5F5F5F5F5F5F5F5F5F5F5F5F5F5F5F5F5F5F5F5F5F5F5F5F5F5F5F5F5F5F5F5F5F5F5F5F5F5
310
F5F5F5F5F5F5F5E2E2E2F5F5F5F5F5F5F5E2E2E2E2E2F5E2E2E2F5F5F5F5E2E2E2F5F5F5F5F5F5F5F5F5F5F5F5F5F5F5F5F5F5F5F5F5F5F5F5F5F5F5F5F5F5F5F5F5F5F5F5F5F5F5E2F5F5F5F5F5F5F5F5E2F5F5E2E2E2E2F5F5E2F5F5F5F5F5F5F5F5E2F5F5F5F5F5F5F5F5F5F5F5F5F5F5F5F5F5F5F5F5F5F5F5F5F5F5F5
310
F5F5F5F5F5F5F5F5F5F5F5F5F5F5F5F5F5F5F5F5F5F5F5F5F5F5F5F5F5F5F5F5F5F5F5F5F5F5F5F5F5F5F5F5F5F5F5F5F5F5F5F5F5F5F5F5F5F5F5F5E2E2E2F5F5F5F5F5F5E2E2E2E2E2E2E2E2E2E2E2E2F5F5E2E2E2F5F5F5F5F5F5F5F5F5F5F5F5F5F5F5F5F5F5F5F5F5F5F5F5F5F5F5F5F5F5F5F5F5F5F5F5F5F5F5E2F5
310
F5F5F5F5F5F5F5E2F5F5E2E2E2E2F5F5E2F5F5F5F5F5F5F5F5E2F5F5F5F5F5F5F5F5F5F5F5F5F5F5F5F5F5F5F5F5F5F5F5F5F5F5F5F5F5F5F5F5F5F5F5F5F5F5F5F5F5F5F5F5F5F5F5F5F5F5F5F5F5F5F5F5F5F5F5F5F5F5F5F5F5F5F5F5F5F5F5F5F5F5F5F5F5F5F5F5F5F5F5F5F5F5F5E2E2E2F5F5F5F5F5F5F5E2E2E2F5
310
E2E2E2F5F5F5F5F5F5E2E2E2F5F5F5F5F5F5F5F5F5F5F5F5F5F5F5F5F5F5F5F5F5F5F5F5F5F5F5F5F5F5F5F5F5F5F5F5F5F5F5E2F5F5F5F5F5F5F5F5E2F5F5E2E2E2E2F5F5E2F5F5F5F5F5F5F5F5E2F5F5F5F5F5F5F5F5F5F5F5F5F5F5F5F5F5F5F5F5F5F5F5F5F5F5F5F5F5F5F5F5F5F5F5F5F5F5F5F5F5F5F5F5F5F5F5F5
310
F5F5F5F5F5F5F5F5F5F5F5F5F5F5F5F5F5F5F5F5F5F5F5F5F5F5F5F5F5F5F5F5F5F5F5F5F5F5F5E2F5E2F5F5F5F5F5F5F5F5F5F5F5F5F5F5F5F5F5F5F5F5E2E2E2F5F5F5F5F5F5F5F5F5F5F5F5F5F5F5F5F5F5F5F5F5F5F5F5F5F5F5F5F5F5F5F5F5F5F5F5F5F5F5E2F5F5F5F5F5F5F5F5E2F5F5E2E2E2E2F5F5F5F5F5F5F5
310
F5F5F5F5E2F5F5F5F5F5F5F5F5F5F5F5F5F5F5F5F5F5F5F5F5F5F5F5F5F5F5F5F5F5F5F5F5F5F5F5F5F5F5F5F5F5F5F5F5F5F5F5F5F5F5F5F5F5F5F5F5F5F5F5F5F5F5F5F5F5F5F5F5F5F5F5F5F5F5F5F5F5F5F5F5F5F5F5F5F5F5F5E2F5E2F5F5F5F5F5F5F5F5F5F5F5F5F5F5F5F5F5F5F5F5F5E2F5F5F5F5F5F5F5F5F5F5
310
F5F5F5F5F5F5F5F5F5F5F5F5F5F5F5F5F5F5F5F5F5F5F5F5F5F5F5F5F5F5E2F5F5F5F5F5F5F5F5F5F5F5E2E2E2E2F5F5F5F5F5F5F5F5F5F5F5E2F5F5F5F5F5F5F5F5F5F5F5F5F5F5F5F5F5F5F5F5F5F5F5F5F5F5F5F5F5F5F5F5F5F5F5F5F5F5F5F5F5F5F5F5F5F5F5F5F5F5F5F5F5F5F5F5F5F5F5F5F5F5F5F5F5F5F5F5F5
310
F5F5F5F5F5F5F5F5F5F5F5F5F5F5F5F5F5F5E2E2F5F5F5F5F5F5F5E2F5F5F5F5F5F5F5E2E2E2E2F5F5F5E2F5F5F5F5F5F5F5F5F5F5F5F5F5F5F5F5F5F5F5F5F5F5F5F5F5F5F5F5F5F5F5F5F5F5F5F5F5F5F5F5E2F5F5F5F5F5F5F5F5F5F5F5E2E2E2E2F5F5F5F5F5F5F5F5F5F5F5E2F5F5F5F5F5F5F5F5F5F5F5F5F5F5F5F5
310
F5F5F5F5F5F5F5F5F5F5F5F5F5F5F5F5F5F5F5F5F5F5F5F5F5F5F5F5F5F5F5F5F5F5F5F5F5F5F5F5F5F5F5F5F5F5F5F5F5F5F5F5F5F5F5F5F5F5F5F5F5F5F5F5F5F5F5F5F5F5F5F5F5F5F5F5F5F5F5F5E2E2E2E2E2E2E2E2F5E2E2F5F5F5F5E2F5F5F5F5F5F5F5F5F5F5F5F5F5F5F5F5F5F5F5F5F5F5F5F5F5F5F5F5F5F5F5
310
F5F5F5F5F5F5F5F5F5E2F5F5F5F5F5F5F5F5F5F5F5E2E2E2E2F5F5F5F5F5F5F5F5F5F5F5E2F5F5F5F5F5F5F5F5F5F5F5F5F5F5F5F5F5F5F5F5F5F5F5F5F5F5F5F5F5F5F5F5F5F5F5F5F5F5F5F5F5F5F5F5F5F5F5F5F5F5F5F5F5F5F5F5F5F5F5F5F5F5F5F5F5F5F5F5F5F5F5F5F5F5F5F5F5F5F5F5F5F5F5F5F5F5F5E2E2E2
310
F5F5F5F5F5F5E2F5E2E2E2E2F5E2F5E2F5E2F5F5F5E2F5F5F5F5F5F5F5F5F5F5F5F5F5F5F5F5F5F5F5F5F5F5F5F5F5F5F5F5F5F5F5F5F5F5F5F5F5F5F5F5E2F5F5F5F5F5F5F5F5F5F5F5E2E2E2E2F5F5F5F5F5F5F5F5F5F5F5E2F5F5F5F5F5F5F5F5F5F5F5F5F5F5F5F5F5F5F5F5F5F5F5F5F5F5F5F5F5F5F5F5F5F5F5F5F5
310
F5F5F5F5F5F5F5F5F5F5F5F5F5F5F5F5F5F5F5F5F5F5F5F5F5F5F5F5F5F5F5F5F5F5F5F5F5F5F5F5F5F5F5F5F5F5F5F5F5F5E2E2E2F5F5F5F5F5F5E2F5E2E2E2E2F5E2F5E2F5E2F5F5F5E2F5F5F5F5F5F5F5F5F5F5F5F5F5F5F5F5F5F5F5F5F5F5F5F5F5F5F5F5F5F5F5F5F5F5F5F5F5F5F5F5E2F5F5F5F5F5F5F5F5F5F5F5
310
E2E2E2E2F5F5F5F5F5F5F5F5F5F5F5E2F5F5F5F5F5F5F5F5F5F5F5F5F5F5F5F5F5F5F5F5F5F5F5F5F5F5F5F5F5F5F5F5F5F5F5F5F5F5F5F5F5F5F5F5F5F5F5F5F5F5F5F5F5F5F5F5F5F5F5F5F5F5F5F5F5F5F5F5F5F5F5F5F5F5F5F5F5F5F5F5F5F5F5F5F5F5F5E2E2E2F5F5F5F5F5E2F5E2F5E2E2E2F5E2F5F5E2E2F5F5F5
310
E2F5F5F5F5F5F5F5F5F5F5F5F5F5F5F5F5F5F5F5F5F5F5F5F5F5F5F5F5F5F5F5F5F5F5F5F5F5F5F5F5E2F5F5F5F5F5F5F5F5F5F5F5E2E2E2E2F5F5F5F5F5F5F5F5F5F5F5E2F5F5F5F5F5F5F5F5F5F5F5F5F5F5F5F5F5F5F5F5F5F5F5F5F5F5F5F5F5F5F5F5F5F5F5F5F5F5F5F5F5F5F5F5F5F5F5F5F5F5F5F5F5F5F5F5F5F5
310
F5F5F5F5F5F5F5F5F5F5F5F5F5F5F5F5F5F5F5F5F5F5F5F5F5F5F5F5F5E2E2E2F5F5F5F5F5E2F5E2F5E2E2E2F5E2F5F5E2E2F5F5F5E2F5F5F5F5F5F5F5F5F5F5F5F5F5F5F5F5F5F5F5F5F5F5F5F5F5F5F5F5F5F5F5F5F5F5F5F5F5F5F5F5E2F5F5F5F5F5F5F5F5F5F5F5E2E2E2E2F5F5F5F5F5F5F5F5F5F5F5E2F5F5F5F5F5
310
F5F5F5F5F5F5F5F5F5F5F5F5F5F5F5F5F5F5F5F5F5F5F5F5F5F5F5F5F5F5F5F5F5F5F5F5F5F5F5F5F5F5F5F5F5F5F5F5F5F5F5F5F5F5F5F5F5F5F5F5F5F5F5F5F5F5F5F5F5F5F5F5F5F5F5F5F5F5F5F5F5F5E2E2E2F5F5F5F5F5E2F5E2F5E2E2E2F5E2F5F5E2F5E2F5F5E2F5F5F5F5F5F5F5F5F5F5F5F5F5F5F5F5F5F5F5F5
310
F5F5F5F5F5F5F5F5F5F5F5F5F5F5F5F5F5F5F5F5E2F5F5F5F5F5F5F5F5F5F5F5E2E2E2E2F5F5F5F5F5F5F5F5F5F5F5E2F5F5F5F5F5F5F5F5F5F5F5F5F5F5F5F5F5F5F5F5F5F5F5F5F5F5F5F5F5F5F5F5F5F5F5F5F5F5F5F5F5F5F5F5F5F5F5F5F5F5F5F5F5F5F5F5F5F5F5F5F5F5F5F5F5F5F5F5F5F5F5F5F5F5F5F5F5F5F5
310
F5F5F5F5F5F5F5F5F5E2F5F5F5F5F5F5E2F5E2E2E2F5E2F5F5E2F5E2F5E2F5F5E2F5F5F5F5F5F5F5F5F5F5F5F5F5F5F5F5F5F5F5F5F5F5F5F5F5F5F5F5F5F5F5F5F5F5F5F5F5F5F5F5E2F5F5F5F5F5F5F5F5F5F5F5E2E2E2E2F5F5F5F5F5F5F5F5F5F5F5E2F5F5F5F5F5F5F5F5F5F5F5F5F5F5F5F5F5F5F5F5F5F5F5F5F5F5
310
F5F5F5F5F5F5F5F5F5F5F5F5F5F5F5F5F5F5F5F5F5F5F5F5F5F5F5F5F5F5F5F5F5F5F5F5F5F5F5F5F5F5F5F5F5F5F5F5F5F5F5F5F5F5F5F5F5F5F5F5F5F5E2F5F5F5F5F5F5E2F5E2E2E2F5E2F5F5E2F5E2F5E2F5F5E2F5F5F5F5F5F5F5F5F5F5F5F5F5F5F5F5F5F5F5F5F5F5F5F5F5F5F5F5F5F5F5F5F5F5F5F5F5F5F5F5E2
310
F5F5F5F5F5F5F5F5F5F5F5E2E2E2E2F5F5E2F5F5F5F5F5F5F5F5E2F5F5F5F5F5F5F5F5F5F5F5F5F5F5F5F5F5F5F5F5F5F5F5F5F5F5F5F5F5F5F5F5F5F5F5F5F5F5F5F5F5F5F5F5F5F5F5F5F5F5F5F5F5F5F5F5F5F5F5F5F5F5F5F5F5F5F5F5F5F5F5F5F5F5F5F5F5F5F5F5F5F5F5F5F5F5F5F5E2F5F5F5F5F5F5E2F5E2E2E2
310
F5E2F5F5E2F5E2F5E2F5F5E2F5F5F5F5F5F5F5F5F5F5F5F5F5F5F5F5F5F5F5F5F5F5F5F5F5F5F5F5F5F5F5F5F5F5F5F5F5F5F5F5E2F5F5F5F5F5F5F5F5E2F5F5E2E2E2E2F5F5E2F5F5F5F5F5F5F5F5E2F5F5F5F5F5F5F5F5F5F5F5F5F5F5F5F5F5F5F5F5F5F5F5F5F5F5F5F5F5F5F5F5F5F5F5F5F5F5F5F5F5F5F5F5F5F5F5
310
F5F5F5F5F5F5F5F5F5F5F5F5F5F5F5F5F5F5F5F5F5F5F5F5F5F5F5F5F5F5F5F5F5F5F5F5F5F5F5F5F5E2F5F5F5F5F5E2F5E2F5E2E2F5E2F5F5E2F5F5E2F5E2F5E2F5F5F5F5F5F5F5F5F5F5F5F5F5F5F5F5F5F5F5F5F5F5F5F5F5F5F5F5F5F5F5F5F5F5F5F5F5F5F5F5E2F5F5F5F5F5F5F5F5E2F5F5E2E2E2E2F5F5E2F5F5F5
310
F5F5F5F5F5E2F5F5F5F5F5F5F5F5F5F5F5F5F5F5F5F5F5F5F5F5F5F5F5F5F5F5F5F5F5F5F5F5F5F5F5F5F5F5F5F5F5F5F5F5F5F5F5F5F5F5F5F5F5F5F5F5F5F5F5F5F5F5F5F5F5F5F5F5F5F5F5F5F5F5F5F5F5F5F5F5F5F5F5F5F5F5F5F5E2F5F5F5F5F5E2F5E2F5E2E2F5E2F5F5E2F5F5E2F5E2F5E2F5F5F5F5F5F5F5F5F5
310
F5F5F5F5F5F5F5F5F5F5F5F5F5F5F5F5F5F5F5F5F5F5F5F5F5F5F5F5F5F5F5E2F5F5F5F5F5F5F5F5E2F5F5E2E2E2E2F5F5E2F5F5F5F5F5F5F5F5E2F5F5F5F5F5F5F5F5F5F5F5F5F5F5F5F5F5F5F5F5F5F5F5F5F5F5F5F5F5F5F5F5F5F5F5F5F5F5F5F5F5F5F5F5F5F5F5F5F5F5F5F5F5F5F5F5F5F5F5F5F5F5F5F5F5F5F5F5
310
F5F5F5F5F5F5F5F5F5F5F5F5F5F5F5F5F5F5F5F5E2F5F5F5F5F5E2F5E2F5E2E2F5E2F5F5E2F5F5E2F5E2F5E2F5F5F5F5F5F5F5F5F5F5F5F5F5F5F5F5F5F5F5F5F5F5F5F5F5F5F5F5F5F5F5F5F5F5F5F5F5F5F5F5E2F5F5F5F5F5F5F5F5E2F5F5E2E2E2E2F5F5E2F5F5F5F5F5F5F5F5E2F5F5F5F5F5F5F5F5F5F5F5F5F5F5F5
310
F5F5F5F5F5F5F5F5F5F5F5F5F5F5F5F5F5F5F5F5F5F5F5F5F5F5F5F5F5F5F5F5F5F5F5F5F5F5F5F5F5F5F5F5F5F5F5F5F5F5F5F5F5F5F5F5F5F5F5F5F5F5F5F5F5F5F5F5F5F5F5F5E2E2F5F5F5F5F5E2F5E2F5F5E2F5E2F5F5E2F5F5E2F5E2F5E2E2F5F5F5F5F5F5F5F5F5F5F5F5F5F5F5F5F5F5F5F5F5F5F5F5F5F5F5F5F5
310
F5F5F5F5F5F5F5F5F5F5E2F5F5F5F5F5F5F5F5E2F5F5E2E2E2E2F5F5E2F5F5F5F5F5F5F5F5E2F5F5F5F5F5F5F5F5F5F5F5F5F5F5F5F5F5F5F5F5F5F5F5F5F5F5F5F5F5F5F5F5F5F5F5F5F5F5F5F5F5F5F5F5F5F5F5F5F5F5F5F5F5F5F5F5F5F5F5F5F5F5F5F5F5F5F5F5F5F5F5F5F5F5F5F5F5F5F5F5F5F5F5F5F5F5F5F5E2
310
F5F5F5F5E2F5E2F5F5E2F5F5E2F5F5E2F5F5E2F5F5E2E2E2F5F5F5F5F5F5F5F5F5F5F5F5F5F5F5F5F5F5F5F5F5F5F5F5F5F5F5F5F5F5F5F5F5F5F5F5F5F5F5E2F5F5F5F5F5F5F5F5E2F5F5E2E2E2E2F5F5E2F5F5F5F5F5F5F5F5E2F5F5F5F5F5F5F5F5F5F5F5F5F5F5F5F5F5F5F5F5F5F5F5F5F5F5F5F5F5F5F5F5F5F5F5F5
310
F5F5F5F5F5F5F5F5F5F5F5F5F5F5F5F5F5F5F5F5F5F5F5F5F5F5F5F5F5F5F5F5F5F5F5F5F5F5F5F5F5F5F5F5F5F5F5F5F5F5E2E2E2E2E2E2E2E2F5E2F5F5E2F5F5E2F5F5E2F5F5E2F5F5E2E2E2E2F5F5F5F5F5F5F5F5F5F5F5F5F5F5F5F5F5F5F5F5F5F5F5F5F5F5F5F5F5F5F5F5F5F5F5F5F5F5E2F5F5F5F5F5F5F5F5E2F5
310
F5E2E2E2E2F5F5E2F5F5F5F5F5F5F5F5E2F5F5F5F5F5F5F5F5F5F5F5F5F5F5F5F5F5F5F5F5F5F5F5F5F5F5F5F5F5F5F5F5F5F5F5F5F5F5F5F5F5F5F5F5F5F5F5F5F5F5F5F5F5F5F5F5F5F5F5F5F5F5F5F5F5F5F5F5F5F5F5F5F5F5F5F5F5F5F5F5F5F5F5F5F5F5F5F5F5F5F5F5F5F5F5F5F5F5F5F5F5F5F5F5F5F5F5F5F5F5
310
F5F5F5F5F5F5F5F5F5F5F5F5F5F5F5F5F5F5F5F5F5F5F5F5F5F5F5F5F5F5F5F5F5F5F5F5F5F5F5F5F5F5E2F5F5F5F5F5F5F5F5E2F5F5E2E2E2E2F5F5E2F5F5F5F5F5F5F5F5E2F5F5F5F5F5F5F5F5F5F5F5F5F5F5F5F5F5F5F5F5F5F5F5F5F5F5F5F5F5F5F5F5F5F5F5F5F5F5F5F5F5F5F5F5F5F5F5F5F5F5F5F5F5F5F5F5F5
310
F5F5F5F5F5F5F5F5F5F5F5F5F5F5F5F5F5F5F5F5F5F5F5F5F5F5F5F5F5F5F5F5F5F5F5F5F5F5F5F5F5F5F5F5F5F5F5F5F5F5F5F5F5F5F5F5F5F5F5F5F5F5F5F5F5F5F5F5F5F5F5F5F5F5F5F5F5F5F5F5F5F5F5F5F5F5F5F5F5F5F5F5F5F5F5E2F5F5F5F5F5F5F5F5E2F5F5E2E2E2E2F5F5E2F5F5F5F5F5F5F5F5E2F5F5F5F5
310
F5F5F5F5F5F5F5F5F5F5F5F5F5F5F5F5F5F5F5F5F5F5F5F5F5F5F5F5F5F5F5F5F5F5F5F5F5F5F5F5F5F5F5F5F5F5F5F5F5F5F5F5F5F5F5F5F5F5F5F5F5F5F5F5F5F5F5F5F5F5F5F5F5F5F5F5F5F5F5F5F5F5F5F5F5F5F5F5F5F5F5F5F5F5F5F5F5F5F5F5F5F5F5F5F5F5F5F5F5F5F5F5F5F5F5F5F5F5F5F5F5F5F5F5F5F5F5
310
F5F5F5F5F5F5F5F5F5F5F5F5F5F5F5F5F5F5F5F5F5E2F5F5F5F5F5F5F5F5E2F5F5E2E2E2E2F5F5E2F5F5F5F5F5F5F5F5E2F5F5F5F5F5F5F5F5F5F5F5F5F5F5F5F5F5F5F5F5F5F5F5F5F5F5F5F5F5F5F5F5F5F5F5F5F5F5F5F5F5F5F5F5F5F5F5F5F5F5F5F5F5F5F5F5F5F5F5F5F5F5F5F5F5F5F5F5F5F5F5F5F5F5F5F5F5F5
310
F5F5F5F5F5F5F5F5F5F5F5F5F5F5F5F5F5F5F5F5F5F5F5F5F5F5F5F5F5F5F5F5F5F5F5F5F5F5F5F5F5F5F5F5F5F5F5F5F5F5F5F5F5F5F5F5F5F5F5F5F5F5F5F5F5F5F5F5F5F5F5F5F5F5E2F5F5F5F5F5F5F5F5E2F5F5E2E2E2E2F5F5E2F5F5F5F5F5F5F5F5E2F5F5F5F5F5F5F5F5F5F5F5F5F5F5F5F5F5F5F5F5F5F5F5F5F5
310
F5F5F5F5F5F5F5F5F5F5F5F5F5F5F5F5F5F5F5F5F5F5F5F5F5F5F5F5F5F5F5F5F5F5F5F5F5F5F5F5F5F5F5F5F5F5F5F5F5F5F5F5F5F5F5F5F5F5F5F5F5F5F5F5F5F5F5F5F5F5F5F5F5F5F5F5F5F5F5F5F5F5F5F5F5F5F5F5F5F5F5F5F5F5F5F5F5F5F5F5F5F5F5F5F5F5F5F5F5F5F5F5F5F5F5F5F5F5F5F5F5F5F5F5F5F5F5
310
E2F5F5F5F5F5F5F5F5E2F5F5E2E2E2E2F5F5E2F5F5F5F5F5F5F5F5E2F5F5F5F5F5F5F5F5F5F5F5F5F5F5F5F5F5F5F5F5F5F5F5F5F5F5F5F5F5F5F5F5F5F5F5F5F5F5F5F5F5F5F5F5F5F5F5F5F5F5F5F5F5F5F5F5F5F5F5F5F5F5F5F5F5F5F5F5F5F5F5F5F5F5F5F5F5F5F5F5F5F5F5F5F5F5F5F5F5F5F5F5F5F5F5F5F5F5F5
310
F5F5F5F5F5F5F5F5F5F5F5F5F5F5F5F5F5F5F5F5F5F5F5F5F5F5F5F5F5F5F5F5F5F5F5F5F5F5F5F5F5F5F5F5F5F5F5F5F5F5F5F5F5E2F5F5F5F5F5F5F5F5E2F5F5E2E2E2E2F5F5E2F5F5F5F5F5F5F5F5E2F5F5F5F5F5F5F5F5F5F5F5F5F5F5F5F5F5F5F5F5F5F5F5F5F5F5F5F5F5F5F5F5F5F5F5F5F5F5F5F5F5F5F5F5F5F5
310
F5F5F5F5F5F5F5F5F5F5F5F5F5F5F5F5F5F5F5F5F5F5F5F5F5F5F5F5F5F5F5F5F5F5F5F5F5F5F5F5F5F5F5F5F5F5F5F5F5F5F5F5F5F5F5F5F5F5F5F5F5F5F5F5F5F5F5F5F5F5F5F5F5F5F5F5F5F5F5F5F5F5F5F5F5F5F5F5F5F5F5F5F5F5F5F5F5F5F5F5F5F5F5F5F5F5E2F5F5F5F5F5F5F5F5E2F5F5E2E2E2E2F5F5E2F5F5
310
F5F5F5F5F5F5E2F5F5F5F5F5F5F5F5F5F5F5F5F5F5F5F5F5F5F5F5F5F5F5F5F5F5F5F5F5F5F5F5F5F5F5F5F5F5F5F5F5F5F5F5F5F5F5F5F5F5F5F5F5F5F5F5F5F5F5F5F5F5F5F5F5F5F5F5F5F5F5F5F5F5F5F5F5F5F5F5F5F5F5F5F5F5F5F5F5F5F5F5F5F5F5F5F5F5F5F5F5F5F5F5F5F5F5F5F5F5F5F5F5F5F5F5F5F5F5F5
310
F5F5F5F5F5F5F5F5F5F5F5F5F5F5F5F5F5F5F5F5F5F5F5F5F5F5F5F5F5F5F5F5E2F5F5F5F5F5F5F5F5E2F5F5E2E2E2E2F5F5E2F5F5F5F5F5F5F5F5E2F5F5F5F5F5F5F5F5F5F5F5F5F5F5F5F5F5F5F5F5F5F5F5F5F5F5F5F5F5F5F5F5F5F5F5F5F5F5F5F5F5F5F5F5F5F5F5F5F5F5F5F5F5F5F5F5F5F5F5F5F5F5F5F5F5F5F5
310
F5F5F5F5F5F5F5F5F5F5F5F5F5F5F5F5F5F5F5F5F5F5F5F5F5F5F5F5F5F5F5F5F5F5F5F5F5F5F5F5F5F5F5F5F5F5F5F5F5F5F5F5F5F5F5F5F5F5F5F5F5F5F5F5F5F5F5F5F5F5F5F5F5F5F5F5F5F5F5F5F5F5F5F5F5E2F5F5F5F5F5F5F5F5E2F5F5E2E2E2E2F5F5F5F5F5F5F5F5F5F5F5E2F5F5F5F5F5F5F5F5F5F5F5F5F5F5
310
F5F5F5F5F5F5F5F5F5F5F5F5F5F5F5F5F5F5F5F5F5F5F5F5F5F5F5F5F5F5F5F5F5F5F5F5F5F5F5F5F5F5F5F5F5F5F5F5F5F5F5F5F5F5F5F5F5F5F5F5F5F5F5F5F5F5F5F5F5F5F5F5F5F5F5F5F5F5F5F5F5F5F5F5F5F5F5F5F5F5F5F5F5F5F5F5F5F5F5F5F5F5F5F5F5F5F5F5F5F5F5F5F5F5F5F5F5F5F5F5F5F5F5F5F5F5F5
310
F5F5F5F5F5F5F5F5F5F5F5E2F5F5F5F5F5F5F5F5F5F5F5E2E2E2E2F5F5F5F5F5F5F5F5F5F5F5E2F5F5F5F5F5F5F5F5F5F5F5F5F5F5F5F5F5F5F5F5F5F5F5F5F5F5F5F5F5F5F5F5F5F5F5F5F5F5F5F5F5F5F5F5F5F5F5F5F5F5F5F5F5F5F5F5F5F5F5F5F5F5F5F5F5F5F5F5F5F5F5F5F5F5F5F5F5F5F5F5F5F5F5F5F5F5F5F5
310
F5F5F5F5F5F5F5F5F5F5F5F5F5F5F5F5F5F5F5F5F5F5F5F5F5F5F5F5F5F5F5F5F5F5F5F5F5F5F5F5F5F5F5F5F5F5F5F5F5F5F5F5F5F5F5F5F5F5F5F5F5F5F5F5E2F5F5F5F5F5F5F5F5F5F5F5E2E2E2E2F5F5F5F5F5F5F5F5F5F5F5E2F5F5F5F5F5F5F5F5F5F5F5F5F5F5F5F5F5F5F5F5F5F5F5F5F5F5F5F5F5F5F5F5F5F5F5
310
F5F5F5F5F5F5F5F5F5F5F5F5F5F5F5F5F5F5F5F5F5F5F5F5F5F5F5F5F5F5F5F5F5F5F5F5F5F5F5F5F5F5F5F5F5F5F5F5F5F5F5F5F5F5F5F5F5F5F5F5F5F5F5F5F5F5F5F5F5F5F5F5F5F5F5F5F5F5F5F5F5F5F5F5F5F5F5F5F5F5F5F5F5F5F5F5F5F5F5F5F5F5F5F5F5F5F5F5F5F5F5F5F5F5F5F5F5E2F5F5F5F5F5F5F5F5F5
310
F5F5E2E2E2E2F5F5F5F5F5F5F5F5F5F5F5E2F5F5F5F5F5F5F5F5F5F5F5F5F5F5F5F5F5F5F5F5F5F5F5F5F5F5F5F5F5F5F5F5F5F5F5F5F5F5F5F5F5F5F5F5F5F5F5F5F5F5F5F5F5F5F5F5F5F5F5F5F5F5F5F5F5F5F5F5F5F5F5F5F5F5F5F5F5F5F5F5F5F5F5F5F5F5F5F5F5F5F5F5F5F5F5F5F5F5F5F5F5F5F5F5F5F5F5F5F5
310
F5F5F5F5F5F5F5F5F5F5F5F5F5F5F5F5F5F5F5F5F5F5F5F5F5F5F5F5F5F5F5F5F5F5F5F5F5F5F5F5F5F5F5E2F5F5F5F5F5F5F5F5F5F5F5E2E2E2E2F5F5F5F5F5F5F5F5F5F5F5E2E2E2E2E2E2E2E2E2E2E2E2E2E2E2E2E2E2E2E2E2E2E2E2E2E2E2E2E2E2E2E2E2E2E2E2E2E2E2E2E2E2E2E2E2E2E2E2E2E2E2E2E2E2E2E2E2
310
E2E2E2E2E2E2E2E2E2E2E2E2E2E2E2E2E2E2E2E2E2E2E2E2E2E2E2E2E2E2E2E2E2E2E2E2E2E2E2E2E2E2E2E2E2E2E2E2E2E2E2E2E2E2E2E2E2E2E2E2E2E2E2E2E2E2E2E2E2E2E2E2E2E2E2E2E2E2E2E2E2E2E2E2E2E2E2E2E2E2E2E2E2E2E2E2E2F5F5F5F5F5F5F5F5F5F5F5E2E2E2E2F5F5F5F5F5F5F5F5F5F5F5F5F5F5F5
310
F5F5F5F5F5F5F5F5F5F5F5F5F5F5F5F5F5F5F5F5F5F5F5F5F5F5F5F5F5F5F5F5F5F5F5F5F5F5F5F5F5F5F5F5F5F5F5F5F5F5F5F5F5F5F5F5F5F5F5F5F5F5F5F5F5F5F5F5F5F5F5F5F5F5F5F5F5F5F5F5F5F5F5F5F5F5F5F5F5F5F5F5F5F5F5F5F5F5F5F5F5F5F5F5F5F5F5F5F5F5F5F5F5F5F5F5F5F5F5F5F5F5F5F5F5F5F5
310
F5F5F5F5F5F5F5F5F5F5F5F5F5F5F5F5F5F5F5F5F5F5F5F5F5F5F5F5F5F5F5F5F5F5E2E2E2E2F5F5F5F5F5F5F5F5F5F5F5F5F5F5F5F5F5F5F5F5F5F5F5F5F5F5F5F5F5F5F5F5F5F5F5F5F5F5F5F5F5F5F5F5F5F5F5F5F5F5F5F5F5F5F5F5F5F5F5F5F5F5F5F5F5F5F5F5F5F5F5F5F5F5F5F5F5F5F5F5F5F5F5F5F5F5F5F5F5
310
F5F5F5F5F5F5F5F5F5F5F5F5F5F5F5F5F5F5F5F5F5F5F5F5F5F5F5F5F5F5F5F5F5F5F5F5F5F5F5F5F5F5F5F5F5F5F5F5F5F5F5F5F5F5F5F5F5F5F5F5F5F5F5F5F5F5F5F5F5F5F5F5F5F5F5F5F5F5F5F5F5F5F5F5F5F5F5E2E2E2E2F5F5F5F5F5F5F5F5F5F5F5F5F5F5F5F5F5F5F5F5F5F5F5F5F5F5F5F5F5F5F5F5F5F5F5F5
310
F5F5F5F5F5F5F5F5F5F5F5F5F5F5F5F5F5F5F5F5F5F5F5F5F5F5F5F5F5F5F5F5F5F5F5F5F5F5F5F5F5F5F5F5F5F5F5F5F5F5F5F5F5F5F5E2F5F5E2E2E2E2F5E2F5E2F5E2E2F5F5E2E2F5F5F5F5F5E2E2E2F5E2F5E2F5E2E2E2F5E2F5F5F5F5E2F5F5F5F5F5F5F5F5F5F5F5F5F5F5F5F5F5F5F5F5F5F5F5F5F5F5F5F5F5F5F5
310
F5F5F5F5F5F5F5F5F5F5F5F5F5E2E2E2E2F5F5F5F5F5F5F5F5F5F5F5F5F5F5F5F5F5F5F5F5F5F5F5F5F5F5F5F5F5F5F5F5F5F5F5F5F5F5F5F5F5F5F5F5F5F5F5F5F5F5F5F5F5F5F5F5F5F5F5F5F5F5F5F5F5F5F5F5F5F5F5F5F5F5F5F5F5F5F5F5F5F5F5F5F5F5F5F5F5F5F5E2F5F5E2E2F5E2F5E2F5E2E2F5F5E2F5E2E2E2
310
F5F5F5F5E2F5E2F5E2F5E2E2F5E2F5F5E2F5F5F5E2F5E2F5F5F5F5F5F5F5F5F5F5F5F5F5F5F5F5F5F5F5F5F5F5F5F5F5F5F5F5F5F5F5F5F5F5F5F5F5F5F5F5F5F5F5E2E2E2E2F5F5E2F5F5F5F5F5F5F5F5F5F5F5F5F5F5F5F5F5F5F5F5F5F5F5F5F5F5F5F5F5F5F5F5F5F5F5F5F5F5F5F5F5F5F5F5F5F5F5F5F5F5F5F5F5F5
310
F5F5F5F5F5F5F5F5F5F5F5F5F5F5F5F5F5F5F5F5F5F5F5F5F5F5F5F5F5F5F5F5F5F5E2E2E2E2E2E2E2F5E2F5E2E2E2E2E2E2F5E2E2F5F5F5F5F5E2F5F5E2E2E2E2E2E2F5E2E2E2F5E2E2E2E2F5F5F5F5F5F5F5F5F5F5F5F5F5F5F5F5F5F5F5F5F5F5F5F5F5F5F5F5F5F5F5F5F5F5F5F5F5F5F5F5E2F5F5E2E2E2E2F5F5E2F5
310
F5F5F5F5F5F5F5F5F5F5F5F5F5F5F5F5F5F5F5F5F5F5F5F5F5F5F5F5F5F5F5F5F5F5F5F5F5F5F5F5F5F5F5F5F5F5F5F5F5F5F5F5F5F5F5F5F5F5F5F5F5F5F5F5F5F5F5F5F5F5F5F5F5F5F5F5F5F5F5F5F5F5F5F5F5F5F5E2F5F5E2F5F5F5F5E2F5E2F5F5F5F5F5F5F5F5F5F5F5F5E2F5E2F5E2F5F5F5F5F5F5F5E2F5E2F5E2
310
F5F5F5F5F5F5F5F5F5F5F5F5F5F5F5F5F5F5F5F5F5F5F5F5F5F5F5F5F5F5F5F5F5F5F5F5F5F5F5F5F5F5E2F5F5E2E2E2E2F5F5E2F5F5F5F5F5F5F5F5F5F5F5F5F5F5F5F5F5F5F5F5F5F5F5F5F5F5F5F5F5F5F5F5F5F5F5F5F5F5F5F5F5F5F5F5F5F5F5F5F5F5F5F5F5F5F5F5F5F5F5F5F5F5F5F5F5F5F5F5F5F5F5F5F5F5F5
310
F5F5F5F5F5F5F5F5F5F5F5F5F5E2F5F5E2F5F5F5F5E2F5E2F5F5F5F5F5F5F5F5F5F5F5F5E2E2E2F5E2F5F5F5F5F5F5F5F5E2F5F5E2F5F5F5F5F5F5F5F5F5F5F5F5F5F5F5F5F5F5F5F5F5F5F5F5F5F5F5F5F5F5F5F5F5F5F5F5F5F5F5F5F5F5E2F5F5E2E2E2E2F5F5E2F5F5F5F5F5F5F5F5F5F5F5F5F5F5F5F5F5F5F5F5F5F5
310
F5F5F5F5F5F5F5F5F5F5F5F5F5F5F5F5F5F5F5F5F5F5F5F5F5F5F5F5F5F5F5F5F5F5F5F5F5F5F5F5F5F5F5F5F5F5F5F5F5F5F5F5F5F5F5F5F5F5F5F5F5F5F5F5F5F5F5F5F5F5F5F5F5F5F5F5F5F5F5F5F5F5F5F5F5F5F5F5F5F5F5F5F5F5F5F5F5F5F5F5F5F5F5F5F5F5F5F5F5F5F5F5F5F5F5F5F5F5F5F5F5F5F5F5F5F5F5
310
F5F5F5F5F5F5F5F5F5F5F5F5F5F5F5F5F5F5F5F5F5E2F5F5E2E2E2E2F5F5E2F5F5F5F5F5F5F5F5F5F5F5F5F5F5F5F5F5F5F5F5F5F5F5F5F5F5F5F5F5F5F5F5F5F5F5F5F5F5F5F5F5F5F5F5F5F5F5F5F5F5F5F5F5F5F5F5F5F5F5F5F5F5F5F5F5F5F5F5F5F5F5F5F5F5F5F5F5F5F5F5F5F5F5F5F5F5F5F5F5E2E2F5F5F5E2F5
310
F5F5E2E2F5F5E2F5F5F5F5F5F5F5F5F5F5F5F5F5F5F5F5F5F5F5F5F5F5F5F5F5F5F5F5F5F5F5F5F5F5F5F5F5F5F5F5F5F5F5F5F5F5F5F5F5F5F5F5F5F5F5F5F5F5F5F5F5F5F5F5F5F5F5E2F5F5E2E2E2E2F5F5E2F5F5F5F5F5F5F5F5F5F5F5F5F5F5F5F5F5F5F5F5F5F5F5F5F5F5F5F5F5F5F5F5F5F5F5F5F5F5F5F5F5F5F5
310
F5F5F5F5F5F5F5F5F5F5F5F5F5F5F5F5F5F5F5F5F5F5F5F5F5F5F5F5F5F5F5F5F5F5F5F5F5F5F5F5F5F5F5F5F5E2F5F5E2F5F5E2F5F5F5E2E2F5F5E2F5F5F5F5E2E2F5E2F5F5F5F5F5F5F5F5F5F5F5F5F5F5F5F5F5F5F5F5F5F5F5F5F5F5F5F5F5F5F5F5F5F5F5F5F5F5F5F5F5F5F5F5F5F5F5F5F5F5F5F5F5F5F5F5F5F5F5
310
E2F5F5E2E2E2E2F5F5E2F5F5F5F5F5F5F5F5F5F5F5F5F5F5F5F5F5F5F5F5F5F5F5F5F5F5F5F5F5F5F5F5F5F5F5F5F5F5F5F5F5F5F5F5F5F5F5F5F5F5F5F5F5F5F5F5F5F5F5F5F5F5F5F5F5F5F5F5F5F5F5F5F5F5F5F5F5F5F5F5F5F5F5F5F5F5F5F5E2E2E2E2E2E2E2F5E2E2E2E2E2E2E2E2E2E2E2E2E2E2E2F5F5F5F5F5F5
310
F5F5F5F5F5F5F5F5F5F5F5F5F5F5F5F5F5F5F5F5F5F5F5F5F5F5F5F5F5F5F5F5F5F5F5F5F5F5F5F5F5F5F5F5F5F5F5F5F5F5F5F5F5E2F5F5E2E2E2E2F5F5E2F5F5F5F5F5F5F5F5F5F5F5F5F5F5F5F5F5F5F5F5F5F5F5F5F5F5F5F5F5F5F5F5F5F5F5F5F5F5F5F5F5F5F5F5F5F5F5F5F5F5F5F5F5F5F5F5F5F5F5F5F5F5F5F5
310
F5F5F5F5F5F5F5F5F5F5F5F5F5F5F5F5F5F5F5F5F5F5F5F5E2F5F5E2F5E2E2F5F5E2E2F5E2F5E2F5F5F5F5E2E2F5E2F5F5F5F5F5F5F5F5F5F5F5F5F5F5F5F5F5F5F5F5F5F5F5F5F5F5F5F5F5F5F5F5F5F5F5F5F5F5F5F5F5F5F5F5F5F5F5F5F5F5F5F5F5F5F5F5F5F5F5E2F5F5E2E2E2E2F5F5E2E2E2E2E2E2E2E2F5F5F5F5
310
F5F5F5F5F5E2E2E2E2E2E2E2E2E2E2E2E2E2E2E2E2F5F5F5F5F5F5F5F5F5E2E2E2E2E2E2E2E2E2E2E2E2E2E2E2F5F5F5F5F5F5F5F5F5E2E2E2E2E2E2E2E2E2E2E2E2E2E2E2E2F5F5F5F5F5F5F5F5E2E2E2E2E2E2E2E2E2E2E2E2E2E2E2E2F5F5F5F5F5F5F5F5F5E2E2E2E2E2E2E2E2E2E2E2E2E2E2E2F5F5F5F5F5F5F5F5F5
310
E2E2E2E2E2E2E2E2E2E2E2E2E2E2E2E2F5F5F5F5F5F5F5F5F5E2E2E2E2E2E2E2E2F5F5E2E2E2E2F5F5F5F5F5F5F5F5F5F5F5F5F5F5F5F5F5F5F5F5F5F5F5F5F5F5F5F5F5F5F5F5F5F5F5F5F5F5F5F5F5F5F5F5F5F5F5F5F5F5F5F5F5F5F5F5F5F5F5F5F5F5F5F5F5F5F5F5F5F5F5F5F5F5F5F5F5F5F5F5F5F5F5F5F5F5F5F5
310
F5F5F5F5F5F5F5F5F5F5F5F5F5F5F5F5F5F5F5F5F5F5F5F5F5F5F5F5F5F5F5F5F5F5F5F5F5F5F5F5F5F5F5F5F5F5F5F5F5F5F5F5F5F5F5F5F5F5F5F5F5F5F5F5F5F5F5F5F5F5F5F5F5F5F5F5F5F5F5F5F5F5F5F5F5F5F5F5E2E2E2E2F5F5F5F5F5F5F5F5F5F5F5F5F5F5F5F5F5F5F5F5F5F5F5F5F5F5F5F5F5F5F5F5F5F5F5
310
F5F5F5F5F5F5F5F5F5F5F5F5F5F5F5F5F5F5F5F5F5F5F5F5F5F5F5F5F5F5F5F5F5F5F5F5F5F5F5F5F5F5F5F5F5F5F5F5F5F5F5F5F5F5F5F5F5F5F5F5F5F5F5F5F5F5F5F5F5F5F5F5F5F5F5F5F5F5F5F5F5F5F5F5F5F5F5F5F5F5F5F5F5F5F5F5F5F5F5F5F5F5F5F5F5F5F5F5F5F5F5F5F5F5F5F5F5F5F5F5F5F5F5F5F5F5F5
310
F5F5F5F5F5F5F5F5F5F5F5F5F5F5E2E2E2E2F5F5F5F5F5F5F5F5F5F5F5F5F5F5F5F5F5F5F5F5F5F5F5F5F5F5F5F5F5F5F5F5F5F5F5F5F5F5F5F5F5F5F5F5F5F5F5F5F5F5F5F5F5F5F5F5F5F5F5F5F5F5F5F5F5F5F5F5F5F5F5F5F5F5F5F5F5F5F5F5F5F5F5F5F5F5F5F5F5F5F5F5F5F5F5F5F5F5F5F5F5F5F5F5F5F5F5F5F5
310
F5F5F5F5F5F5F5F5F5F5F5F5F5F5F5F5F5F5F5F5F5F5F5F5F5F5F5F5F5F5F5F5F5F5F5F5F5F5F5F5F5F5F5F5F5F5F5F5F5F5F5F5F5F5F5F5F5F5F5F5F5F5F5F5F5F5F5E2EFEFE2F5F5F5F5F5F5F5F5F5F5F5F5F5F5F5F5F5F5F5F5F5F5F5F5F5F5F5F5F5F5F5F5F5F5F5F5F5F5F5F5F5F5F5F5F5F5F5F5F5F5F5F5F5F5F5F5
310
F5F5F5F5F5F5F5F5F5F5F5F5F5F5F5F5F5F5F5F5F5F5F5F5F5F5F5F5F5F5F5F5F5F5F5F5F5F5F5F5F5F5F5F5F5F5F5F5F5F5F5F5F5F5F5F5F5F5F5F5F5F5F5F5F5F5F5F5F5F5F5F5F5F5F5F5F5F5F5F5F5F5F5F5F5F5F5F5F5F5F5F5F5F5F5F5F5F5F5F5F5F5F5F5F5F5F5F5F5F5F5F5F5F5F5F5F5F5F5F5E2EFEFE2E2E2E2
310
E2E2E2E2E2E2E2E2E2E2E2E2E2E2E2E2E2E2E2E2E2E2E2E2E2E2E2E2E2E2E2E2E2E2E2E2E2E2E2E2E2E2E2E2E2E2E2E2E2E2E2E2E2E2E2E2E2E2E2E2E2E2E2E2E2E2E2E2E2E2E2E2E2E2E2E2E2E2E2E2E2E2E2E2E2E2E2E2E2E2E2E2E2E2E2E2E2E2E2E2E2E2E2E2E2E2E2E2E2E2E2E2E2E2E2E2E2E2E2E2E2E2E2E2E2E2E2
310
E2E2E2E2E2E2E2E2E2E2E2E2E2E2E2E2E2E2E2E2E2E2E2E2E2E2E2E2E2E2E2E2E2E2E2E2E2E2E2E2E2E2E2E2E2E2E2EFEF
  0
XRECORD
  5
5B4A1
102
{ACAD_REACTORS
330
5B4A0
102
}
330
5B4A0
100
AcDbXrecord
280
     1
102
SHADEPLOT
 70
     0
102
SHADEPLOTRESLEVEL
 70
     2
102
SHADEPLOTCUSTOMDPI
 70
   300
  0
ENDSEC
  0
EOF
